Подписывайся на наш канал в Telegram https://t.me/torrentok и получи доступ к торрентам без ограничений!
. bolt.mmix.club
Авторские права
con...@...Показать
Вход на сайт
Логин:
Пароль:
 
Навигация по сайту
Популярные статьи

Торрент трекер | Скачать торрент | Скачать через Торрент | Скачать торрент бесплатно | Скачать торрент без регистрации Фильмы торрент скачать Красная жара / Red Heat (1988) BDRemux [H.264 / 1080p] торрент скачать бесплатно

Красная жара / Red Heat (1988) BDRemux [H.264 / 1080p] торрент скачать бесплатно

Фильмы торрент скачать
Красная жара / Red Heat (1988) BDRemux [H.264 / 1080p]Производство: США, Венгрия/Carolco Pictures Inc., Lone Wolf, Oak Pictures
Жанр: боевик, триллер, комедия, криминал
Режиссер: Уолтер Хилл

Актеры
Арнольд Шварценеггер, Джеймс Белуши, Питер Бойл, Эд О’Росс, Лоренс Фишбёрн, Джина Гершон, Ричард Брайт, Дж.В. Смит, Брент Дженнингс, Гретхен Палмер

Описание

В доперестроечные времена торговля наркотиками была из ряда вон выходящим преступлением. На борьбу с грузинским мафиози, который используя все связи США, пытается пристрастить к кокаину советских граждан, выходит гроза преступного мира милиционер Иван Данко.
Этот парень не любит шутить, и доказательством серьезности его намерений служат большие мускулы и пистолет. Чтобы арестовать бандита, Иван направляется в Чикаго - рассадник капиталистической заразы. Там его помощником становится болтливый полицейский. Вместе они обезвреживают мафиози, разрушив при этом полгорода и расстреляв пару десятков негодяев.

Возраст: 18+ (зрителям, достигшим 18 лет. запрещено для детей)
Рейтинг MPAA: R (лицам до 17 лет обязательно присутствие взрослого)
Продолжительность: 01: 44: 21
Качество видео: BDRemux
Перевод: Многоголосый профессиональный, авторский
Субтитры: русские (R5, Гоблин), английские
Видео: AVC/H.264, 1920x1080, ~19, 0 Mbps
Аудио 1: DTS, 6 ch, 755 Kbps - русский многоголосый, R5
Аудио 2: AC-3, 6 ch, 448 Kbps - русский авторский, Дмитрий Гоблин Пучков
Аудио 3: AC-3, 6 ch, 448 Kbps - русский авторский, Андрей Гаврилов
Аудио 4: DTS, 6 ch, 1536 kbps - английский
Общее
Уникальный идентификатор : 187758556822809467951023985913899875757 (0x8D40FB91925BFD47BFBAC3F970F97DAD)
Полное имя : D: Red.Heat.1988.BDRemux.1080p.AVC.3xRus.Eng.mkv
Формат : Matroska
Версия формата : Version 2
Размер файла : 18, 0 Гбайт
Продолжительность : 1 ч. 44 м.
Режим общего битрейта : Переменный
Общий поток : 24, 6 Мбит/сек
Дата кодирования : UTC 2009-12-14 17: 03: 54
Программа кодирования : mkvmerge v2.9.9 (\'Tutu\') built on Nov 25 2009 21: 13: 32
Библиотека кодирования : libebml v0.7.9 + libmatroska v0.8.1
Видео
Идентификатор : 1
Формат : AVC
Формат/Информация : Advanced Video Codec
Профиль формата : High@L4.1
Настройки формата : CABAC/4 Ref Frames
Параметр CABAC формата : Да
Параметр RefFrames формата : 4 кадра
Параметр GOP формата : M=3, N=12
Идентификатор кодека : V_MPEG4/ISO/AVC
Продолжительность : 1 ч. 44 м.
Вид битрейта : Переменный
Максимальный битрейт : 37, 0 Мбит/сек
Ширина : 1 920 пикселей
Высота : 1 080 пикселей
Соотношение сторон : 16: 9
Режим частоты кадров : Постоянный
Частота кадров : 23, 976 (24000/1001) кадра/сек
Цветовое пространство : YUV
Субдискретизация насыщенности : 4: 2: 0
Битовая глубина : 8 бит
Тип развёртки : Прогрессивная
Язык : English
Default : Да
Forced : Нет
Цветовой диапазон : Limited
Основные цвета : BT.709
Характеристики трансфера : BT.709
Коэффициенты матрицы : BT.709
Аудио #1
Идентификатор : 2
Формат : DTS
Формат/Информация : Digital Theater Systems
Идентификатор кодека : A_DTS
Продолжительность : 1 ч. 44 м.
Вид битрейта : Постоянный
Битрейт : 755 Кбит/сек
Каналы : 6 каналов
Channel layout : C L R Ls Rs LFE
Частота : 48, 0 КГц
Частота кадров : 93, 750 кадра/сек (512 SPF)
Битовая глубина : 24 бит
Метод сжатия : С потерями
Размер потока : 563 Мбайт (3%)
Заголовок : DTS 5.1 768 kbps (Профессиональный многоголосный закадровый (R5))
Язык : Russian
Default : Да
Forced : Нет
Аудио #2
Идентификатор : 3
Формат : AC-3
Формат/Информация : Audio Coding 3
Коммерческое название : Dolby Digital
Идентификатор кодека : A_AC3
Продолжительность : 1 ч. 44 м.
Вид битрейта : Постоянный
Битрейт : 448 Кбит/сек
Каналы : 6 каналов
Channel layout : L R C LFE Ls Rs
Частота : 48, 0 КГц
Частота кадров : 31, 250 кадров/сек (1536 SPF)
Метод сжатия : С потерями
Размер потока : 334 Мбайт (2%)
Заголовок : AC3 5.1 448 kbps (Авторский одноголосный (Дмитрий Гоблин Пучков))
Язык : Russian
Service kind : Complete Main
Default : Нет
Forced : Нет
Аудио #3
Идентификатор : 4
Формат : AC-3
Формат/Информация : Audio Coding 3
Коммерческое название : Dolby Digital
Идентификатор кодека : A_AC3
Продолжительность : 1 ч. 44 м.
Вид битрейта : Постоянный
Битрейт : 448 Кбит/сек
Каналы : 6 каналов
Channel layout : L R C LFE Ls Rs
Частота : 48, 0 КГц
Частота кадров : 31, 250 кадров/сек (1536 SPF)
Метод сжатия : С потерями
Размер потока : 334 Мбайт (2%)
Заголовок : AC3 5.1 448 kbps (Авторский одноголосный (Андрей Гаврилов))
Язык : Russian
Service kind : Complete Main
Default : Нет
Forced : Нет
Аудио #4
Идентификатор : 5
Формат : DTS XLL
Формат/Информация : Digital Theater Systems
Коммерческое название : DTS-HD Master Audio
Идентификатор кодека : A_DTS
Продолжительность : 1 ч. 44 м.
Вид битрейта : Переменный
Каналы : 6 каналов
Channel layout : C L R Ls Rs LFE
Частота : 48, 0 КГц
Частота кадров : 93, 750 кадра/сек (512 SPF)
Битовая глубина : 24 бит
Метод сжатия : Без потерь
Заголовок : DTS-HD MA 5.1 4008 kbps (DTS Core 5.1 1536 kbps)
Язык : English
Default : Нет
Forced : Нет
Текст #1
Идентификатор : 6
Формат : UTF-8
Идентификатор кодека : S_TEXT/UTF8
Идентификатор кодека/Информация : UTF-8 Plain Text
Заголовок : R5
Язык : Russian
Default : Нет
Forced : Нет
Текст #2
Идентификатор : 7
Формат : UTF-8
Идентификатор кодека : S_TEXT/UTF8
Идентификатор кодека/Информация : UTF-8 Plain Text
Заголовок : Гоблин
Язык : Russian
Default : Нет
Forced : Нет
Текст #3
Идентификатор : 8
Формат : UTF-8
Идентификатор кодека : S_TEXT/UTF8
Идентификатор кодека/Информация : UTF-8 Plain Text
Язык : English
Default : Нет
Forced : Нет
 
Уважаемый посетитель, Вы зашли на сайт как незарегистрированный пользователь. Мы рекомендуем Вам зарегистрироваться либо зайти на сайт под своим именем.

Другие новости по теме:

  • Красная жара / Red Heat (1988) BDRip [1080p] ATV
  • Красная Жара / Red Heat (1988) [720p] BDRip
  • Красная жара / Red Heat (1988) BDRip [H.265 / 1080p] [10-bit] [PR]
  • Красная жара / Red Heat (1988) UHD BDRemux [H.265 / 2160p] [4K, HDR, 10-bit]
  • Красная жара / Red Heat (1988) BDRip [H.264 / 720p] [Remastered]
  • Красная жара / Red Heat (1988) BDRip [H.264] [VO]


  • Информация
    Посетители, находящиеся в группе Гости, не могут оставлять комментарии в данной новости.
    Главная страница | Регистрация | Добавить новость | Новое на сайте Copyright © 2019. bolt.mmix.club All Rights Reserved