Подписывайся на наш канал в Telegram https://t.me/torrentok и получи доступ к торрентам без ограничений!
. bolt.mmix.club
Авторские права
con...@...Показать
Вход на сайт
Логин:
Пароль:
 
Навигация по сайту
Популярные статьи

Торрент трекер | Скачать торрент | Скачать через Торрент | Скачать торрент бесплатно | Скачать торрент без регистрации Фильмы торрент скачать Сумерки / Twilight (2008) HDRip [H.264] [Open Matte] [PR] торрент скачать бесплатно

Сумерки / Twilight (2008) HDRip [H.264] [Open Matte] [PR] торрент скачать бесплатно

Фильмы торрент скачать
Сумерки / Twilight (2008) HDRip [H.264] [Open Matte] [PR]Производство: США/Summit Entertainment, Temple Hill Entertainment, Maverick Films, Imprint Entertainment, Goldcrest Pictures, Twilight Productions
Жанр: фэнтези, драма, мелодрама
Режиссер: Кэтрин Хардвик

Актеры
Кристен Стюарт, Роберт Паттинсон, Билли Бёрк, Эшли Грин, Никки Рид, Джексон Рэтбоун, Тэйлор Лотнер, Питер Фачинелли, Рашель Лефевр, Кэм Жиганде

Описание

Семнадцатилетняя девушка Белла переезжает к отцу в небольшой городок Форкс. Она влюбляется в загадочного одноклассника, который, как оказалось, происходит из семьи вампиров, отказавшихся от нападений на людей. Влюбиться в вампира. Это страшно? Это романтично, это прекрасно и мучительно, но это не может кончиться добром, особенно в вечном противостоянии вампирских кланов, где малейшее отличие от окружающих уже превращает вас во врага.

Возраст: 16+ (зрителям, достигшим 16 лет)
Рейтинг MPAA: PG-13 (детям до 13 лет просмотр нежелателен)
Продолжительность: 02: 01: 49
Качество видео: HDRip
Перевод: Дублированный
Субтитры: русские, английские
Видео: AVC/H.264, 1024x576, 23.976 fps, ~2082 kbps
Аудио 1: AC3, 2 ch, 192 kbps - Русский (DUB)
Аудио 2: AC3, 2 ch, 192 kbps - Английский
General
Unique ID : 240573941429223158358016607766651656561 (0xB4FCDB1355C903A7BFFB9387C360D971)
Complete name : D: Сумерки (2008) Open Matte.mkv
Format : Matroska
Format version : Version 4
File size : 2.14 GiB
Duration : 2 h 1 min
Overall bit rate : 2 516 kb/s
Encoded date : UTC 2019-01-26 17: 16: 33
Writing application : mkvmerge v6.4.1 (\'Omega Point\') built on Sep 16 2013 22: 05: 10
Writing library : libebml v1.3.0 + libmatroska v1.4.1
Video
ID : 1
Format : AVC
Format/Info : Advanced Video Codec
Format profile : High@L3.1
Format settings : CABAC/8 Ref Frames
Format settings, CABAC : Yes
Format settings, Reference : 8 frames
Codec ID : V_MPEG4/ISO/AVC
Duration : 2 h 1 min
Bit rate : 2 082 kb/s
Nominal bit rate : 2 220 kb/s
Width : 1 024 pixels
Height : 576 pixels
Display aspect ratio : 16: 9
Frame rate mode : Constant
Frame rate : 23.976 (24000/1001) FPS
Original frame rate : 25.000 FPS
Color space : YUV
Chroma subsampling : 4: 2: 0
Bit depth : 8 bits
Scan type : Progressive
Bits/(Pixel*Frame) : 0.147
Stream size : 1.77 GiB (83%)
Writing library : x264 core 146 r2538 121396c
Encoding settings : cabac=1/ref=8/deblock=1: 0: 0/analyse=0x3: 0x113/me=umh/subme=10/psy=1/psy_rd=1.00: 0.00/mixed_ref=1/me_range=32/chroma_me=1/trellis=2/8x8dct=1/cqm=0/deadzone=21, 11/fast_pskip=0/chroma_qp_offset=-2/threads=6/lookahead_threads=1/sliced_threads=0/nr=0/decimate=1/interlaced=0/bluray_compat=0/constrained_intra=0/bframes=9/b_pyramid=2/b_adapt=2/b_bias=0/direct=3/weightb=1/open_gop=0/weightp=2/keyint=250/keyint_min=25/scenecut=40/intra_refresh=0/rc_lookahead=50/rc=2pass/mbtree=1/bitrate=2220/ratetol=1.0/qcomp=0.60/qpmin=0/qpmax=69/qpstep=4/cplxblur=20.0/qblur=0.5/vbv_maxrate=14000/vbv_bufsize=14000/nal_hrd=none/filler=0/ip_ratio=1.40/aq=1: 1.00
Default : Yes
Forced : No
Audio #1
ID : 2
Format : AC-3
Format/Info : Audio Coding 3
Commercial name : Dolby Digital
Codec ID : A_AC3
Duration : 2 h 1 min
Bit rate mode : Constant
Bit rate : 192 kb/s
Channel(s) : 2 channels
Channel layout : L R
Sampling rate : 48.0 kHz
Frame rate : 31.250 FPS (1536 SPF)
Bit depth : 16 bits
Compression mode : Lossy
Stream size : 167 MiB (8%)
Language : Russian
Service kind : Complete Main
Default : Yes
Forced : No
Audio #2
ID : 3
Format : AC-3
Format/Info : Audio Coding 3
Commercial name : Dolby Digital
Codec ID : A_AC3
Duration : 2 h 1 min
Bit rate mode : Constant
Bit rate : 192 kb/s
Channel(s) : 2 channels
Channel layout : L R
Sampling rate : 48.0 kHz
Frame rate : 31.250 FPS (1536 SPF)
Bit depth : 16 bits
Compression mode : Lossy
Stream size : 167 MiB (8%)
Language : English
Service kind : Complete Main
Default : No
Forced : No
Text #1
ID : 4
Format : UTF-8
Codec ID : S_TEXT/UTF8
Codec ID/Info : UTF-8 Plain Text
Language : Russian
Default : No
Forced : No
Text #2
ID : 5
Format : UTF-8
Codec ID : S_TEXT/UTF8
Codec ID/Info : UTF-8 Plain Text
Language : English
Default : No
Forced : No
 
Уважаемый посетитель, Вы зашли на сайт как незарегистрированный пользователь. Мы рекомендуем Вам зарегистрироваться либо зайти на сайт под своим именем.

Другие новости по теме:

  • Сумерки / Twilight (2008 / 2009 / 2010 / 2011 / 2012) BDRip [H.264 / 1080p-LQ] [Пенталогия]
  • Сумерки / Twilight (2008) BDRip [H.265 / 1080p-LQ] [10-bit]
  • Сумерки / Twilight (2008) UHD Blu-Ray [H.265 / 2160p] [4K, HDR, Dolby Vision, 10-bit] [Custom]
  • Сумерки / Twilight (2008) UHD BDRemux [H.265 / 2160p] [4K, HDR, 10-bit]
  • Сумерки. Сага / The Twilight Saga (2008-2012) BDRip [720p] [Антология]
  • Сумерки. Сага. Затмение / The Twilight Saga: Eclipse (2010) BDRip [720p] [hand made 60fps] скачать через торрент бесплатно
  • Сумерки. Сага / The Twilight Saga (2008-2012) BDRip [1080p] [Антология]
  • Асад. Сумерки режима / Syria: the Assads Twilight (2011) DVB скачать через торрент бесплатно


  • Информация
    Посетители, находящиеся в группе Гости, не могут оставлять комментарии в данной новости.
    Главная страница | Регистрация | Добавить новость | Новое на сайте Copyright © 2019. bolt.mmix.club All Rights Reserved