Подписывайся на наш канал в Telegram https://t.me/torrentok и получи доступ к торрентам без ограничений!
. bolt.mmix.club
Авторские права
con...@...Показать
Вход на сайт
Логин:
Пароль:
 
Навигация по сайту
Популярные статьи

Торрент трекер | Скачать торрент | Скачать через Торрент | Скачать торрент бесплатно | Скачать торрент без регистрации Фильмы торрент скачать Скрытая сила (Затаившиеся убийцы) / Saat sau kwong lung / The Hidden Enforcers (2002) WEB-DLRip [VO] торрент скачать бесплатно

Скрытая сила (Затаившиеся убийцы) / Saat sau kwong lung / The Hidden Enforcers (2002) WEB-DLRip [VO] торрент скачать бесплатно

Фильмы торрент скачать
Скрытая сила (Затаившиеся убийцы) / Saat sau kwong lung / The Hidden Enforcers (2002) WEB-DLRip [VO]Производство: Гонконг, BS Films Ltd.
Жанр: Боевик, драма, криминал
Режиссер: Йин Нэм
Продюсер: Йин Нэм

Актеры
Саммо Хун, Надя Чань, Кен Вон, Вэй-Шан Ли, Моника Ло, Ка Фай Тонг, Саймон Луй, Сэк Сау, Эмили Кван, Чу Фанг Чэн

Описание

Когда-то Кинг (Саммо Хунг) был гонконгским полицейским, но когда триадовца, в ходе захвата которого он потерял коллегу, отпускают, он увольняется и перебирается в Тайланд, где берет под свое крыло группу подростков. Спустя пятнадцать лет он открывает им смысл всего этого – он тренировал их, чтобы те превратились в его личных убийц, которые будут вершить правосудие над теми, кто заслуживает смерти, но избежал наказания.

Релиз от: Rip by vitolinform
Продолжительность: 01: 32: 50
Качество видео: WEB-DLRip
Перевод: Одноголосый любительский (Виктор Береговых)
Субтитры: китайские - hardsub (неотключаемые)
Видео: Xvid, 720x400, ~1829 kbps
Аудио 1: AC3, 2 ch, 224 Кbps | Русский (VO, В.Береговых)
Аудио 2: AC3, 2 ch, 192 Кbps | Китайский
Общее
Полное имя : C: Zataivshiesya.ubijcy.2002.WEB-DLRip.avi
Формат : AVI
Формат/Информация : Audio Video Interleave
Размер файла : 1, 46 Гбайт
Продолжительность : 1 ч. 32 м.
Общий поток : 2 259 Кбит/сек
Название фильма : Скрытая сила/Затаившиеся убийцы/Saat sau kwong lung/The Hidden Enforcers (2002) WEB-DLRip
Режиссёр : Йин Нэм/Yin Nam
Жанр : Боевик, драма, криминал
Программа кодирования : VirtualDubMod 1.5.10.2 (build 2542/release)
Формат оригинала/Имя : Художественный фильм
Авторское право : Гонконг, BS Films Ltd.
Примечание : Rip by vitolinform
Видео
Идентификатор : 0
Формат : MPEG-4 Visual
Профиль формата : Advanced Simple@L5
Настройки формата : BVOP1
Параметр BVOP формата : 1
Параметр QPel формата : Нет
Параметр GMC формата : Без точки перехода
Параметр матрицы формата : Default (MPEG)
Идентификатор кодека : XVID
Идентификатор кодека/Подсказка : XviD
Продолжительность : 1 ч. 32 м.
Битрейт : 1 829 Кбит/сек
Ширина : 720 пикселей
Высота : 400 пикселей
Соотношение сторон : 16: 9
Частота кадров : 24, 000 кадра/сек
Цветовое пространство : YUV
Субдискретизация насыщенности : 4: 2: 0
Битовая глубина : 8 бит
Тип развёртки : Прогрессивная
Метод сжатия : С потерями
Бит/(Пиксели*Кадры) : 0.265
Размер потока : 1, 19 Гбайт (81%)
Библиотека кодирования : XviD 69
Аудио #1
Идентификатор : 1
Формат : AC-3
Формат/Информация : Audio Coding 3
Коммерческое название : Dolby Digital
Идентификатор кодека : 2000
Продолжительность : 1 ч. 32 м.
Вид битрейта : Постоянный
Битрейт : 224 Кбит/сек
Каналы : 2 канала
Channel layout : L R
Частота : 48, 0 КГц
Частота кадров : 31, 250 кадров/сек (1536 SPF)
Метод сжатия : С потерями
Размер потока : 149 Мбайт (10%)
Выравнивание : Разделение по промежуткам
Продолжительность промежутка : 42 мс. (1, 00 видеокадр)
Время предзагрузки промежутка : 500 мс.
Заголовок : Russian (VO, Виктор Береговых)
Service kind : Complete Main
Аудио #2
Идентификатор : 2
Формат : AC-3
Формат/Информация : Audio Coding 3
Коммерческое название : Dolby Digital
Идентификатор кодека : 2000
Продолжительность : 1 ч. 32 м.
Вид битрейта : Постоянный
Битрейт : 192 Кбит/сек
Каналы : 2 канала
Channel layout : L R
Частота : 48, 0 КГц
Частота кадров : 31, 250 кадров/сек (1536 SPF)
Метод сжатия : С потерями
Размер потока : 127 Мбайт (8%)
Выравнивание : Разделение по промежуткам
Продолжительность промежутка : 42 мс. (1, 00 видеокадр)
Время предзагрузки промежутка : 500 мс.
Заголовок : Chinese
Service kind : Complete Main

Скриншоты для ознакомления



Все одноименные релизы в Клубе
Время раздачи: 24/7 (мультитрекерная раздача) (до появления первых 3-5 скачавших)
 
Уважаемый посетитель, Вы зашли на сайт как незарегистрированный пользователь. Мы рекомендуем Вам зарегистрироваться либо зайти на сайт под своим именем.

Другие новости по теме:

  • Джон Ассараф | Скрытая сила привычек. Как перестать ограничивать свои возможности, мечты и достижения (2019) [PDF]
  • Антон Емельянов, Сергей Савинов | Скрытая сила (2019) [FB2]
  • Антон Емельянов, Сергей Савинов | Скрытая сила (2019) [MP3]
  • Скрытая угроза. Сила символа (2014.12.23) SATRip


  • Информация
    Посетители, находящиеся в группе Гости, не могут оставлять комментарии в данной новости.
    Главная страница | Регистрация | Добавить новость | Новое на сайте Copyright © 2019. bolt.mmix.club All Rights Reserved