Подписывайся на наш канал в Telegram https://t.me/torrentok и получи доступ к торрентам без ограничений!
. bolt.mmix.club
Авторские права
con...@...Показать
Вход на сайт
Логин:
Пароль:
 
Навигация по сайту
Популярные статьи

Торрент трекер | Скачать торрент | Скачать через Торрент | Скачать торрент бесплатно | Скачать торрент без регистрации Фильмы торрент скачать Скрытая сила (Затаившиеся убийцы) / Saat sau kwong lung / The Hidden Enforcers (2002) WEB-DL [H.264 / 1080p-LQ] [VO] торрент скачать бесплатно

Скрытая сила (Затаившиеся убийцы) / Saat sau kwong lung / The Hidden Enforcers (2002) WEB-DL [H.264 / 1080p-LQ] [VO] торрент скачать бесплатно

Фильмы торрент скачать
Скрытая сила (Затаившиеся убийцы) / Saat sau kwong lung / The Hidden Enforcers (2002) WEB-DL [H.264 / 1080p-LQ] [VO]Производство: Гонконг, BS Films Ltd.
Жанр: Боевик, драма, криминалЙин Нэм
Режиссер: Йин Нэм
Продюсер: Йин Нэм

Актеры
Саммо Хун, Надя Чань, Кен Вон, Вэй-Шан Ли, Моника Ло, Ка Фай Тонг, Саймон Луй, Сэк Сау, Эмили Кван, Чу Фанг Чэн

Описание

Когда-то Кинг (Саммо Хунг) был гонконгским полицейским, но когда триадовца, в ходе захвата которого он потерял коллегу, отпускают, он увольняется и перебирается в Тайланд, где берет под свое крыло группу подростков. Спустя пятнадцать лет он открывает им смысл всего этого – он тренировал их, чтобы те превратились в его личных убийц, которые будут вершить правосудие над теми, кто заслуживает смерти, но избежал наказания.

Релиз от: vitolinform
Продолжительность: 01: 32: 50
Качество видео: WEB-DL
Перевод: Одноголосый любительский (Виктор Береговых)
Субтитры: Русские, китайские - hardsub (неотключаемые)
Видео: AVC/H.264, 1920x1080, ~2864 kbps
Аудио 1: AC3, 2 ch, 224 Кbps | Русский (VO, В.Береговых)
Аудио 2: AAC, 2 ch, 192 Кbps | Китайский (Mandarin)
Аудио 3: AAC, 2 ch, 192 Кbps | Китайский (Cantonese)
Общее
Уникальный идентификатор : 188192190151326686655583337169890907891 (0x8D947F57A71E4547E125D197F33D16F3)
Полное имя : C: The.Hidden.Enforcer.2002.1080p.WEB-DL.mkv
Формат : Matroska
Версия формата : Version 4
Размер файла : 2, 25 Гбайт
Продолжительность : 1 ч. 32 м.
Общий поток : 3 470 Кбит/сек
Название фильма : Скрытая сила/Затаившиеся убийцы/Saat sau kwong lung/The Hidden Enforcers (2002) WEB-DL (1080p)
Дата кодирования : UTC 2020-08-16 09: 33: 17
Программа кодирования : mkvmerge v42.0.0 (\'Overtime\') 32-bit
Библиотека кодирования : libebml v1.3.10 + libmatroska v1.5.2
Attachments : Poster.jpg
Видео
Идентификатор : 1
Формат : AVC
Формат/Информация : Advanced Video Codec
Профиль формата : High@L4
Настройки формата : CABAC/3 Ref Frames
Параметр CABAC формата : Да
Параметр RefFrames формата : 3 кадра
Идентификатор кодека : V_MPEG4/ISO/AVC
Продолжительность : 1 ч. 32 м.
Битрейт : 2 864 Кбит/сек
Ширина : 1 920 пикселей
Высота : 1 080 пикселей
Соотношение сторон : 16: 9
Режим частоты кадров : Постоянный
Частота кадров : 24, 000 кадра/сек
Цветовое пространство : YUV
Субдискретизация насыщенности : 4: 2: 0
Битовая глубина : 8 бит
Тип развёртки : Прогрессивная
Бит/(Пиксели*Кадры) : 0.058
Размер потока : 1, 86 Гбайт (83%)
Заголовок : Скрытая сила/Затаившиеся убийцы/Saat sau kwong lung/The Hidden Enforcers (2002) WEB-DL (1080p)
Язык : Chinese
Default : Да
Forced : Да
Цветовой диапазон : Limited
Основные цвета : BT.709
Характеристики трансфера : BT.709
Коэффициенты матрицы : BT.709
Аудио #1
Идентификатор : 2
Формат : AC-3
Формат/Информация : Audio Coding 3
Коммерческое название : Dolby Digital
Идентификатор кодека : A_AC3
Продолжительность : 1 ч. 32 м.
Вид битрейта : Постоянный
Битрейт : 224 Кбит/сек
Каналы : 2 канала
Channel layout : L R
Частота : 48, 0 КГц
Частота кадров : 31, 250 кадров/сек (1536 SPF)
Метод сжатия : С потерями
Размер потока : 149 Мбайт (6%)
Заголовок : VO Виктор Береговых
Язык : Russian
Service kind : Complete Main
Default : Да
Forced : Да
Аудио #2
Идентификатор : 3
Формат : AAC LC
Формат/Информация : Advanced Audio Codec Low Complexity
Идентификатор кодека : A_AAC-2
Продолжительность : 1 ч. 32 м.
Битрейт : 192 Кбит/сек
Каналы : 2 канала
Channel layout : L R
Частота : 44, 1 КГц
Частота кадров : 43, 066 кадра/сек (1024 SPF)
Метод сжатия : С потерями
Размер потока : 126 Мбайт (5%)
Заголовок : Mandarin
Язык : Chinese
Default : Нет
Forced : Нет
Аудио #3
Идентификатор : 4
Формат : AAC LC
Формат/Информация : Advanced Audio Codec Low Complexity
Идентификатор кодека : A_AAC-2
Продолжительность : 1 ч. 32 м.
Битрейт : 192 Кбит/сек
Каналы : 2 канала
Channel layout : L R
Частота : 44, 1 КГц
Частота кадров : 43, 066 кадра/сек (1024 SPF)
Метод сжатия : С потерями
Размер потока : 126 Мбайт (5%)
Заголовок : Cantonese
Язык : Chinese
Default : Нет
Forced : Нет
Текст
Идентификатор : 5
Формат : UTF-8
Идентификатор кодека : S_TEXT/UTF8
Идентификатор кодека/Информация : UTF-8 Plain Text
Продолжительность : 1 ч. 29 м.
Битрейт : 49 бит/сек
Count of elements : 492
Размер потока : 32, 1 Кбайт (0%)
Заголовок : Виктор Береговых
Язык : Russian
Default : Нет
Forced : Нет

Скриншоты для ознакомления



Все одноименные релизы в Клубе
Время раздачи: 24/7 (мультитрекерная раздача) (до появления первых 3-5 скачавших)
 
Уважаемый посетитель, Вы зашли на сайт как незарегистрированный пользователь. Мы рекомендуем Вам зарегистрироваться либо зайти на сайт под своим именем.

Другие новости по теме:

  • Джон Ассараф | Скрытая сила привычек. Как перестать ограничивать свои возможности, мечты и достижения (2019) [PDF]
  • Антон Емельянов, Сергей Савинов | Скрытая сила (2019) [FB2]
  • Антон Емельянов, Сергей Савинов | Скрытая сила (2019) [MP3]
  • Скрытая угроза. Сила символа (2014.12.23) SATRip


  • Информация
    Посетители, находящиеся в группе Гости, не могут оставлять комментарии в данной новости.
    Главная страница | Регистрация | Добавить новость | Новое на сайте Copyright © 2019. bolt.mmix.club All Rights Reserved