Подписывайся на наш канал в Telegram https://t.me/torrentok и получи доступ к торрентам без ограничений!
. bolt.mmix.club
Авторские права
con...@...Показать
Вход на сайт
Логин:
Пароль:
 
Навигация по сайту
Популярные статьи

Торрент трекер | Скачать торрент | Скачать через Торрент | Скачать торрент бесплатно | Скачать торрент без регистрации Фильмы торрент скачать Зал самоубийц / Sala samobojcow (2011) HDRip [AVO] торрент скачать бесплатно

Зал самоубийц / Sala samobojcow (2011) HDRip [AVO] торрент скачать бесплатно

Фильмы торрент скачать
Зал самоубийц / Sala samobojcow (2011) HDRip [AVO]Производство: Польша/Studio Filmowe Kadr
Жанр: триллер, драма, мелодрама
Режиссер: Ян Комаса

Актеры
Якуб Гершал, Рома Гонщёровска, Агата Кулеша, Кшиштоф Печиньский, Бартош Гелнер, Данута Борсук, Петр Новак, Филип Бобек, Кинга Прейс, Анна Илчук

Описание

Главный герой - впечатлительный восемнадцатилетний парень, которого ждет экзамен на аттестат зрелости.
У него вечно занятые родители, в материальном отношении обеспечивающие его всем.
Столкнувшись с невезением и унижением, не имея ни в ком поддержки, он ищет спасение в интернете.
В сети он знакомится с таинственной незнакомкой, которая втягивает его в опасную игру...


Дата мировой премьеры: 12 февраля 2011
Продолжительность: 1: 56: 05
Качество видео: HDRip
Перевод: Авторский (Василий Кошкин)Присутствует ненормативная лексика!
Субтитры: нет
Видео: Xvid, 704x400, ~1600 Kbps
Аудио: MP3, 2 ch, 192 Kbps
General
Complete name : /Sala.samobojcow.2011.HDRip.1.5Gb.AVO.avi
Format : AVI
Format/Info : Audio Video Interleave
File size : 1.46 GiB
Duration : 1 h 56 min
Overall bit rate : 1 798 kb/s
Writing application : VirtualDubMod 1.5.10.3 |www.virtualdub-fr.org|| (build 2550/release)
Writing library : VirtualDubMod build 2550/release
Video
ID : 0
Format : MPEG-4 Visual
Format profile : Advanced Simple@L5
Format settings : BVOP1/Custom Matrix
Format settings, BVOP : 1
Format settings, QPel : No
Format settings, GMC : No warppoints
Format settings, Matrix : Custom
Codec ID : XVID
Codec ID/Hint : XviD
Duration : 1 h 56 min
Bit rate : 1 596 kb/s
Width : 704 pixels
Height : 400 pixels
Display aspect ratio : 16: 9
Frame rate : 24.000 FPS
Color space : YUV
Chroma subsampling : 4: 2: 0
Bit depth : 8 bits
Scan type : Progressive
Compression mode : Lossy
Bits/(Pixel*Frame) : 0.236
Stream size : 1.29 GiB (89%)
Writing library : XviD 65
Audio
ID : 1
Format : MPEG Audio
Format version : Version 1
Format profile : Layer 3
Codec ID : 55
Codec ID/Hint : MP3
Duration : 1 h 56 min
Bit rate mode : Constant
Bit rate : 192 kb/s
Channel(s) : 2 channels
Sampling rate : 44.1 kHz
Compression mode : Lossy
Stream size : 159 MiB (11%)
Alignment : Split across interleaves
Interleave, duration : 42 ms (1.00 video frame)
Interleave, preload duration : 500 ms
Writing library : LAME3.98.4
 
Уважаемый посетитель, Вы зашли на сайт как незарегистрированный пользователь. Мы рекомендуем Вам зарегистрироваться либо зайти на сайт под своим именем.

Другие новости по теме:

  • Зал самоубийц. Хейтер / Sala samobojcow Hejter (2020) BDRip [AVO]
  • Зал самоубийц. Хейтер / Sala samobojcow Hejter (2020) BDRemux [H.264 / 1080p] [AVO]
  • Зал самоубийц. Хейтер / Sala samobójców. Hejter / Suicide Room: Hater (2020) BDRip [H.264 / 1080p] [AVO]
  • Зал самоубийц. Хейтер / Sala samobojcow Hejter (2020) BDRip [H.264 / 1080p] [AVO]


  • Информация
    Посетители, находящиеся в группе Гости, не могут оставлять комментарии в данной новости.
    Главная страница | Регистрация | Добавить новость | Новое на сайте Copyright © 2019. bolt.mmix.club All Rights Reserved