Подписывайся на наш канал в Telegram https://t.me/torrentok и получи доступ к торрентам без ограничений!
. bolt.mmix.club
Авторские права
con...@...Показать
Вход на сайт
Логин:
Пароль:
 
Навигация по сайту
Популярные статьи

Торрент трекер | Скачать торрент | Скачать через Торрент | Скачать торрент бесплатно | Скачать торрент без регистрации Фильмы торрент скачать Кот в мешке / Buying the Cow (2000) WEB-DLRip [H.264] торрент скачать бесплатно

Кот в мешке / Buying the Cow (2000) WEB-DLRip [H.264] торрент скачать бесплатно

Фильмы торрент скачать
Кот в мешке / Buying the Cow (2000) WEB-DLRip [H.264]Производство: США/Destination Films
Жанр: Мелодрама, Комедия
Режиссер: Уолт Бекер
Продюсер: Дэн Этеридж, Паула М. Басс, Брент Баумм

Актеры
Джерри О’Коннелл, Бриджит Уилсон, Райан Рейнольдс, Билл Беллами, Алисса Милано, Джон Тенни, Аннабет Гиш, Рон Ливингстон, Эринн Бартлетт, Скарлет Чорват

Описание

Жениться или нет? - Вот в чем вопрос! Для героя этого фильма гамлетовская проблема звучит именно так. Чем настойчивей его подружка подталкивает его в направлении алтаря, тем меньше ему хочется идти с ней под венец. Парню кажется, что он не готов к браку.
Свадьба ужасно напоминает ему покупку кота в мешке. И он решает для начала пойти за советом к друзьям и обратить пристальное внимание на других девушек - ознакомиться с ассортиментом. Практично и разумно? Лишь на первый взгляд. И если поначалу у героя был только один кот в мешке, то теперь не успел он оглянуться, как их стало несколько!


Возраст: 16+ (зрителям, достигшим 16 лет)
Рейтинг MPAA: R (лицам до 17 лет обязательно присутствие взрослого)
Релиз от: Охрана (NNMCLUB)
Продолжительность: 01: 28: 21
Качество видео: WEB-DLRip
Перевод: Многоголосый профессиональный, Первый канал
Субтитры: Русские, английские
Видео: AVC/H.264, 1024x576, ~3088 Kbps
Аудио 1: AC3, 2 ch, 192 Kbps, 48.0 kHz – Русский
Аудио 2: AC3, 2 ch, 256 Kbps, 48.0 kHz – Английский
Общее
Уникальный идентификатор : 209236172577509158570177702552394526567 (0x9D696BC812530988A3F28014C78FEF67)
Полное имя : D: DownloadsКот в мешке. 2000. NNMCLUB.mkv
Формат : Matroska
Версия формата : Version 4/Version 2
Размер файла : 2, 18 Гбайт
Продолжительность : 1 ч. 28 м.
Общий поток : 3538 Кбит/сек
Дата кодирования : UTC 2020-07-25 13: 30: 24
Программа кодирования : mkvmerge v7.9.0 (\'Birds\') 64bit
Библиотека кодирования : libebml v1.3.1 + libmatroska v1.4.2
Видео
Идентификатор : 1
Формат : AVC
Формат/Информация : Advanced Video Codec
Профиль формата : High@L4.1
Настройки формата : CABAC/9 Ref Frames
Параметр CABAC формата : Да
Параметр RefFrames формата : 9 кадров
Идентификатор кодека : V_MPEG4/ISO/AVC
Продолжительность : 1 ч. 28 м.
Битрейт : 3088 Кбит/сек
Ширина : 1024 пикселя
Высота : 576 пикселей
Соотношение сторон : 16: 9
Режим частоты кадров : Постоянный
Частота кадров : 23, 976 (24000/1001) кадра/сек
Цветовое пространство : YUV
Субдискретизация насыщенности : 4: 2: 0
Битовая глубина : 8 бит
Тип развёртки : Прогрессивная
Бит/(Пиксели*Кадры) : 0.218
Размер потока : 1, 91 Гбайт (87%)
Заголовок : Buying the Cow
Библиотека кодирования : x264 core 146 r2538 121396c
Настройки программы : cabac=1/ref=9/deblock=1: -1: -1/analyse=0x3: 0x113/me=umh/subme=10/psy=1/psy_rd=1.00: 0.10/mixed_ref=1/me_range=32/chroma_me=1/trellis=2/8x8dct=1/cqm=0/deadzone=21, 11/fast_pskip=0/chroma_qp_offset=-3/threads=6/lookahead_threads=1/sliced_threads=0/nr=0/decimate=0/interlaced=0/bluray_compat=0/constrained_intra=0/bframes=8/b_pyramid=2/b_adapt=2/b_bias=0/direct=3/weightb=1/open_gop=0/weightp=2/keyint=250/keyint_min=25/scenecut=40/intra_refresh=0/rc_lookahead=60/rc=2pass/mbtree=1/bitrate=3088/ratetol=1.0/qcomp=0.60/qpmin=0/qpmax=69/qpstep=4/cplxblur=20.0/qblur=0.5/vbv_maxrate=14000/vbv_bufsize=14000/nal_hrd=none/filler=0/ip_ratio=1.40/aq=1: 1.00
Язык : English
Default : Да
Forced : Нет
Аудио #1
Идентификатор : 2
Формат : AC-3
Формат/Информация : Audio Coding 3
Идентификатор кодека : A_AC3
Продолжительность : 1 ч. 28 м.
Вид битрейта : Постоянный
Битрейт : 192 Кбит/сек
Каналы : 2 канала
Расположение каналов : Front: L R
Частота : 48, 0 КГц
Частота кадров : 31, 250 кадров/сек (1536 SPF)
Битовая глубина : 16 бит
Метод сжатия : С потерями
Размер потока : 121 Мбайт (5%)
Заголовок : Многоголосый закадровый
Язык : Russian
ServiceKind/String : Complete Main
Default : Да
Forced : Нет
Аудио #2
Идентификатор : 3
Формат : AC-3
Формат/Информация : Audio Coding 3
Идентификатор кодека : A_AC3
Продолжительность : 1 ч. 28 м.
Вид битрейта : Постоянный
Битрейт : 256 Кбит/сек
Каналы : 2 канала
Расположение каналов : Front: L R
Частота : 48, 0 КГц
Частота кадров : 31, 250 кадров/сек (1536 SPF)
Битовая глубина : 16 бит
Метод сжатия : С потерями
Размер потока : 162 Мбайт (7%)
Заголовок : Английский
Язык : English
ServiceKind/String : Complete Main
Default : Нет
Forced : Нет
Текст #1
Идентификатор : 4
Формат : UTF-8
Идентификатор кодека : S_TEXT/UTF8
Идентификатор кодека/Информация : UTF-8 Plain Text
Продолжительность : 1 ч. 22 м.
Битрейт : 124 бит/сек
ElementCount : 1136
Размер потока : 74, 9 Кбайт (0%)
Заголовок : Full
Язык : Russian
Default : Нет
Forced : Нет
Текст #2
Идентификатор : 5
Формат : UTF-8
Идентификатор кодека : S_TEXT/UTF8
Идентификатор кодека/Информация : UTF-8 Plain Text
Продолжительность : 1 ч. 22 м.
Битрейт : 78 бит/сек
ElementCount : 1530
Размер потока : 47, 6 Кбайт (0%)
Заголовок : SDH
Язык : English
Default : Нет
Forced : Нет

Скриншоты для ознакомления




Все одноименные релизы в Клубе
Время раздачи: с 13: 00 до 01: 00 МСК, выходные круглосуточно (до появления первых 3-5 скачавших)
 
Уважаемый посетитель, Вы зашли на сайт как незарегистрированный пользователь. Мы рекомендуем Вам зарегистрироваться либо зайти на сайт под своим именем.

Другие новости по теме:

  • Кот в мешке (1978) TVRip


  • Информация
    Посетители, находящиеся в группе Гости, не могут оставлять комментарии в данной новости.
    Главная страница | Регистрация | Добавить новость | Новое на сайте Copyright © 2019. bolt.mmix.club All Rights Reserved