Подписывайся на наш канал в Telegram https://t.me/torrentok и получи доступ к торрентам без ограничений!
. bolt.mmix.club
Авторские права
con...@...Показать
Вход на сайт
Логин:
Пароль:
 
Навигация по сайту
Популярные статьи

Торрент трекер | Скачать торрент | Скачать через Торрент | Скачать торрент бесплатно | Скачать торрент без регистрации Фильмы торрент скачать Ночные игры / Game Night (2018) WEBRip [H.264 / 1080p-LQ] [Open Matte] [PR] торрент скачать бесплатно

Ночные игры / Game Night (2018) WEBRip [H.264 / 1080p-LQ] [Open Matte] [PR] торрент скачать бесплатно

Фильмы торрент скачать
Ночные игры / Game Night (2018) WEBRip [H.264 / 1080p-LQ] [Open Matte] [PR]Производство: США/Aggregate Films, Davis Entertainment, New Line Cinema
Жанр: боевик, комедия, криминал, детектив
Режиссер: Марк Перез

Актеры
Джейсон Бейтман, Рэйчел МакАдамс, Кайл Чандлер, Шэрон Хорган, Билли Магнуссен, Ламорн Моррис, Кайли Банбери, Джесси Племонс, Майкл С. Холл, Дэнни Хьюстон

Описание

История Макса и Энни, которые вместе с другими парами каждую неделю устраивают так называемые ночные игры. И вот однажды харизматичный брат Макса Брукс организовывает вечер по разгадыванию убийственного квеста с ряжеными головорезами и агентами ФБР. Получается, похищение Брукса в тот вечер – это розыгрыш… или нет?
В итоге, по мере того, как шестеро мега-азартных игроков пытаются решить заготовленные головоломки и выиграть, они начинают осознавать, что и квест, и Брукс – совсем не такие, как кажутся. В течение всей этой суматошной ночи друзья не раз прыгают выше головы, пытаясь выпутаться из очередной передряги. В игре нет правил, за нее не начисляются очки, а игроки понятия не имеют, кому противостоят. Эта ночь может стать самой зажигательной в их жизни… или последней.

Возраст: 18+ (зрителям, достигшим 18 лет. запрещено для детей)
Рейтинг MPAA: R (лицам до 17 лет обязательно присутствие взрослого)
Продолжительность: 01: 40: 03
Качество видео: WEBRip
Перевод: Дублированный, авторский
Субтитры: русские (forced hardsub, full), английские
Видео: AVC/H.264, 1920x1080, 23.976 fps, ~5120 kbps
Аудио 1: AC3, 6 ch, 448 kbps - Русский (DUB)
Аудио 2: AC3, 6 ch, 448 kbps - Русский (AVO Есарев)
Аудио 3: AC3, 6 ch, 448 kbps - Английский
General
Unique ID : 235974664678092138758639379928258311403 (0xB1871139651B8EF7A4D5EF4A2CB1F4EB)
Complete name : F: Ночные игры (2018) Open Matte (1).mkv
Format : Matroska
Format version : Version 4
File size : 4.36 GiB
Duration : 1 h 40 min
Overall bit rate : 6 244 kb/s
Encoded date : UTC 2019-09-19 13: 36: 24
Writing application : mkvmerge v8.3.0 (\'Over the Horizon\') 32bit
Writing library : libebml v1.3.1 + libmatroska v1.4.2
Video
ID : 1
Format : AVC
Format/Info : Advanced Video Codec
Format profile : High@L4
Format settings : CABAC/4 Ref Frames
Format settings, CABAC : Yes
Format settings, Reference : 4 frames
Codec ID : V_MPEG4/ISO/AVC
Duration : 1 h 40 min
Bit rate : 5 120 kb/s
Width : 1 920 pixels
Height : 1 080 pixels
Display aspect ratio : 16: 9
Frame rate mode : Constant
Frame rate : 23.976 (24000/1001) FPS
Color space : YUV
Chroma subsampling : 4: 2: 0
Bit depth : 8 bits
Scan type : Progressive
Bits/(Pixel*Frame) : 0.103
Stream size : 3.42 GiB (78%)
Writing library : x264 core 142
Encoding settings : cabac=1/ref=3/deblock=1: 0: 0/analyse=0x3: 0x113/me=hex/subme=7/psy=1/psy_rd=1.00: 0.00/mixed_ref=1/me_range=16/chroma_me=1/trellis=1/8x8dct=1/cqm=0/deadzone=21, 11/fast_pskip=1/chroma_qp_offset=-2/threads=108/lookahead_threads=8/sliced_threads=0/nr=0/decimate=1/interlaced=0/bluray_compat=0/constrained_intra=0/bframes=6/b_pyramid=2/b_adapt=1/b_bias=0/direct=1/weightb=1/open_gop=0/weightp=2/keyint=50/keyint_min=26/scenecut=0/intra_refresh=0/rc_lookahead=40/rc=2pass/mbtree=1/bitrate=5120/ratetol=1.0/qcomp=0.60/qpmin=0/qpmax=69/qpstep=4/cplxblur=20.0/qblur=0.5/vbv_maxrate=7680/vbv_bufsize=20480/nal_hrd=none/filler=0/ip_ratio=1.40/aq=1: 1.00
Language : Russian
Default : Yes
Forced : No
Audio #1
ID : 2
Format : AC-3
Format/Info : Audio Coding 3
Commercial name : Dolby Digital
Codec ID : A_AC3
Duration : 1 h 40 min
Bit rate mode : Constant
Bit rate : 448 kb/s
Channel(s) : 6 channels
Channel layout : L R C LFE Ls Rs
Sampling rate : 48.0 kHz
Frame rate : 31.250 FPS (1536 SPF)
Bit depth : 16 bits
Compression mode : Lossy
Stream size : 321 MiB (7%)
Title : DUB
Language : Russian
Service kind : Complete Main
Default : Yes
Forced : No
Audio #2
ID : 3
Format : AC-3
Format/Info : Audio Coding 3
Commercial name : Dolby Digital
Codec ID : A_AC3
Duration : 1 h 40 min
Bit rate mode : Constant
Bit rate : 448 kb/s
Channel(s) : 6 channels
Channel layout : L R C LFE Ls Rs
Sampling rate : 48.0 kHz
Frame rate : 31.250 FPS (1536 SPF)
Bit depth : 16 bits
Compression mode : Lossy
Stream size : 321 MiB (7%)
Title : Есарев
Language : Russian
Service kind : Complete Main
Default : No
Forced : No
Audio #3
ID : 4
Format : AC-3
Format/Info : Audio Coding 3
Commercial name : Dolby Digital
Codec ID : A_AC3
Duration : 1 h 40 min
Bit rate mode : Constant
Bit rate : 448 kb/s
Channel(s) : 6 channels
Channel layout : L R C LFE Ls Rs
Sampling rate : 48.0 kHz
Frame rate : 31.250 FPS (1536 SPF)
Bit depth : 16 bits
Compression mode : Lossy
Stream size : 321 MiB (7%)
Language : English
Service kind : Complete Main
Default : No
Forced : No
Text #1
ID : 5
Format : UTF-8
Codec ID : S_TEXT/UTF8
Codec ID/Info : UTF-8 Plain Text
Duration : 1 h 39 min
Bit rate : 135 b/s
Count of elements : 2086
Stream size : 98.7 KiB (0%)
Language : Russian
Default : No
Forced : No
Text #2
ID : 6
Format : UTF-8
Codec ID : S_TEXT/UTF8
Codec ID/Info : UTF-8 Plain Text
Duration : 1 h 39 min
Bit rate : 92 b/s
Count of elements : 2245
Stream size : 67.3 KiB (0%)
Language : English
Default : No
Forced : No
 
Уважаемый посетитель, Вы зашли на сайт как незарегистрированный пользователь. Мы рекомендуем Вам зарегистрироваться либо зайти на сайт под своим именем.

Другие новости по теме:

  • Ночные игры / Game Night (2018) TS [AD]
  • Ночные игры / Game Night (2018) WEB-DLRip
  • Ночные игры / Game Night (2018) WEB-DL [H.264 / 1080p-LQ]
  • Ночные игры / Game Night (2018) WEB-DLRip [480p] iPod
  • Ночные игры / Game Night (2018) WEB-DLRip [576p] iPad
  • Ночные игры / Game Night (2018) WEB-DL [720p] ATV
  • Ночные игры / Game Night (2018) WEB-DL [1080p] AMZN ATV
  • Ночные игры / Game Night (2018) WEB-DL [1080p] ATV


  • Информация
    Посетители, находящиеся в группе Гости, не могут оставлять комментарии в данной новости.
    Главная страница | Регистрация | Добавить новость | Новое на сайте Copyright © 2019. bolt.mmix.club All Rights Reserved