Подписывайся на наш канал в Telegram https://t.me/torrentok и получи доступ к торрентам без ограничений!
. bolt.mmix.club
Авторские права
con...@...Показать
Вход на сайт
Логин:
Пароль:
 
Навигация по сайту
Популярные статьи

Торрент трекер | Скачать торрент | Скачать через Торрент | Скачать торрент бесплатно | Скачать торрент без регистрации Фильмы торрент скачать Без ума от любви / Mozart and the Whale (2005) WEB-DLRip [H.264] торрент скачать бесплатно

Без ума от любви / Mozart and the Whale (2005) WEB-DLRip [H.264] торрент скачать бесплатно

Фильмы торрент скачать
Без ума от любви / Mozart and the Whale (2005) WEB-DLRip [H.264]Производство: США/Big City Pictures, Equity Pictures Medienfonds GmbH Co. KG II
Жанр: Драма, мелодрама, комедия
Режиссер: Петтер Несс
Продюсер: Джеймс Эйксон, Боаз Дэвидсон, Фрэнк ДеМартини

Актеры
Джош Хартнетт, Рада Митчелл, Гэри Коул, Шейла Келли, Эрика Лирсен, Джон Кэрролл Линч, Нат Муни, Расти Швиммер, Роберт Уиздом, Аллен Евангелиста

Описание

Дональд - добрый и безобидный парень. Природа наделила его ранимой душой и феноменальной способностью ловко обращаться с самыми сложными числами, лишив его в обмен на этот дар умения общаться и выражать свои чувства. Мозг ни секунды не дает Дональду покоя, он попросту не сможет жить без надежных правил и схем, которыми наполнен каждый его день. Но когда судьба сводит его с Изабель со столь же уникальной и сложной душой, перед ним возникает формула, которую он еще никогда не решал - непредсказуемая формула любви, где все волнительно и странно.


Возраст: 16+ (зрителям, достигшим 16 лет)
Рейтинг MPAA: PG-13 (детям до 13 лет просмотр нежелателен)
Релиз от: winchester00100010
Продолжительность: 01: 33: 59
Качество видео: WEB-DL
Перевод: Профессиональный (Многоголосый закадровый) (CP Digital) Лицензия с DVD
Субтитры: отсутствуют
Видео: AVC/H.264, 1024х576 (16: 9), ~2885 kbps
Аудио: AC3, 6 ch, 448 kbps - MVO (CP Digital)
x264 info: profile High, level 4.1, 4: 2: 0, 8-bit
x264 info: frame I: 1420 Avg QP: 14.48 size: 82340 PSNR Mean Y: 49.08 U: 52.38 V: 52.61 Avg: 49.92 Global: 49.43
x264 info: frame P: 35148 Avg QP: 16.20 size: 29192 PSNR Mean Y: 47.65 U: 52.05 V: 52.01 Avg: 48.64 Global: 47.93
x264 info: frame B: 98632 Avg QP: 18.24 size: 9022 PSNR Mean Y: 46.71 U: 51.34 V: 51.39 Avg: 47.75 Global: 47.07
Общее
Уникальный идентификатор : 228259197984051218676670674412467918462 (0xABB91F58BF5E4E8CA302BBCCCE68167E)
Полное имя : D: Мои раздачи и рипыБез.ума.от.любви.Mozart.and.the.Whale.2005.WEB-DLRip-AVC.mkv
Формат : Matroska
Версия формата : Version 2
Размер файла : 2, 19 Гбайт
Продолжительность : 1 ч. 33 м.
Общий поток : 3 334 Кбит/сек
Дата кодирования : UTC 2020-08-16 18: 32: 03
Программа кодирования : mkvmerge v5.8.0 (\'No Sleep/Pillow\') built on Sep 2 2012 15: 37: 04
Библиотека кодирования : libebml v1.2.3 + libmatroska v1.3.0
Видео
Идентификатор : 1
Формат : AVC
Формат/Информация : Advanced Video Codec
Профиль формата : High@L4.1
Настройки формата : CABAC/12 Ref Frames
Параметр CABAC формата : Да
Параметр RefFrames формата : 12 кадров
Идентификатор кодека : V_MPEG4/ISO/AVC
Продолжительность : 1 ч. 33 м.
Битрейт : 2 885 Кбит/сек
Ширина : 1 024 пикселя
Высота : 576 пикселей
Соотношение сторон : 16: 9
Режим частоты кадров : Постоянный
Частота кадров : 23, 976 (24000/1001) кадра/сек
Цветовое пространство : YUV
Субдискретизация насыщенности : 4: 2: 0
Битовая глубина : 8 бит
Тип развёртки : Прогрессивная
Бит/(Пиксели*Кадры) : 0.204
Размер потока : 1, 85 Гбайт (85%)
Библиотека кодирования : x264 core 160 r3009 4c9b076
Настройки программы : cabac=1/ref=12/deblock=1: -3: -3/analyse=0x3: 0x133/me=umh/subme=9/psy=1/psy_rd=1.00: 0.15/mixed_ref=1/me_range=32/chroma_me=1/trellis=2/8x8dct=1/cqm=0/deadzone=21, 11/fast_pskip=0/chroma_qp_offset=-3/threads=12/lookahead_threads=2/sliced_threads=0/nr=0/decimate=0/interlaced=0/bluray_compat=0/constrained_intra=0/bframes=6/b_pyramid=2/b_adapt=2/b_bias=0/direct=3/weightb=1/open_gop=0/weightp=2/keyint=240/keyint_min=23/scenecut=40/intra_refresh=0/rc_lookahead=40/rc=2pass/mbtree=0/bitrate=2885/ratetol=1.0/qcomp=0.60/qpmin=0/qpmax=69/qpstep=4/cplxblur=20.0/qblur=0.5/vbv_maxrate=50000/vbv_bufsize=62500/nal_hrd=none/filler=0/ip_ratio=1.40/pb_ratio=1.30/aq=1: 0.90
Язык : English
Default : Да
Forced : Нет
Duration_Source : General_Duration
Аудио
Идентификатор : 2
Формат : AC-3
Формат/Информация : Audio Coding 3
Коммерческое название : Dolby Digital
Идентификатор кодека : A_AC3
Продолжительность : 1 ч. 33 м.
Вид битрейта : Постоянный
Битрейт : 448 Кбит/сек
Каналы : 6 каналов
Channel layout : L R C LFE Ls Rs
Частота : 48, 0 КГц
Частота кадров : 31, 250 кадров/сек (1536 SPF)
Метод сжатия : С потерями
Размер потока : 301 Мбайт (13%)
Service kind : Complete Main
Default : Да
Forced : Нет
Duration_Source : General_Duration

Скриншоты для ознакомления



Все одноименные релизы в Клубе
Время раздачи: с 12: 00 до 00: 00 по МСК (до появления первых 3-5 скачавших), также могу уйти с раздачи на некоторое время в любой момент
 
Уважаемый посетитель, Вы зашли на сайт как незарегистрированный пользователь. Мы рекомендуем Вам зарегистрироваться либо зайти на сайт под своим именем.

Другие новости по теме:

  • Гленнон Дойл Мелтон | Воин любви. История любви и прощения (2017) [FB2]
  • Love Lab / Лаборатория любви [2013, TV, 13] BDrip 1080p Hi10p raw
  • Сила любви (2014) SATRip [Серия 1-4 из 4]
  • Витас - Я подарю тебе весь мир, Ч. 2 (История моей любви) (2014) [MP3|320 кб / с]<Pop> скачать через торрент бесплатно
  • Книжная серия | Сто оттенков любви [43 книги] (2012-2014) [FB2] (обновлено 09.10.2014)
  • Город первой любви (1970) SATRip скачать через торрент бесплатно
  • Сила любви (2014) HDTVRip (2 серии из 2) скачать через торрент бесплатно
  • Wallpapers - О Любви не говори... [JPEG]


  • Информация
    Посетители, находящиеся в группе Гости, не могут оставлять комментарии в данной новости.
    Главная страница | Регистрация | Добавить новость | Новое на сайте Copyright © 2019. bolt.mmix.club All Rights Reserved