Подписывайся на наш канал в Telegram https://t.me/torrentok и получи доступ к торрентам без ограничений!
. bolt.mmix.club
Авторские права
con...@...Показать
Вход на сайт
Логин:
Пароль:
 
Навигация по сайту
Популярные статьи

Торрент трекер | Скачать торрент | Скачать через Торрент | Скачать торрент бесплатно | Скачать торрент без регистрации Фильмы торрент скачать Чёрная дыра / Pitch Black (2000) UHD BDRemux [H.265 / 2160p] [4K, HDR, 10-bit] [Directors Cut] торрент скачать бесплатно

Чёрная дыра / Pitch Black (2000) UHD BDRemux [H.265 / 2160p] [4K, HDR, 10-bit] [Directors Cut] торрент скачать бесплатно

Фильмы торрент скачать
Чёрная дыра / Pitch Black (2000) UHD BDRemux [H.265 / 2160p] [4K, HDR, 10-bit] [Directors Cut]Производство: США, Австралия/Polygram Filmed Entertainment
Жанр: Ужасы, Фантастика, Боевик
Режиссер: Дэвид Туи

Актеры
Вин Дизель, Рада Митчелл, Коул Хаузер, Льюис Фитц-Геральд, Кит Дэвид, Клаудия Блэк, Риана Гриффит, Джон Мур, Саймон Бурк, Лес Чэнтери

Описание

В недалеком будущем космический корабль терпит бедствие, в результате чего совершает вынужденную посадку на отдаленной планете. Но в результате такой посадки погибает командир корабля, часть команды и большинство пассажиров.
Оставшиеся в живых оказываются одни на жуткой и безжизненной планете. Первое, что бросается в глаза - это то, что планета имеет три солнца, из-за чего все живое погибает в этой пустыне. Но как только планета погружается в темноту, появляются какие-то странные существа...

Возраст: 16+ (зрителям, достигшим 16 лет)
Рейтинг MPAA: R (лицам до 17 лет обязательно присутствие взрослого)
Релиз от: selezen
Продолжительность: 01: 51: 47
Качество видео: UHD BDRemux
Перевод: Дублированный, Многоголосый, Авторский
Субтитры: Русские (Full), Английские
Видео: HEVC/H.265, 3840x2160, ~68, 1 Mbps
Аудио 1: DTS, 6 ch, 755 Kbps - Русский (DUB) cо вставками многоголосого перевода, в расширенные места
Аудио 2: AC3, 6 ch, 384 Kbps - Русский (DUB) со вставками многоголосого перевода, в расширенные места
Аудио 3: AC3, 6 ch, 384 Kbps - Русский (MVO)
Аудио 4: DTS, 6 ch, 755 Kbps - Русский (AVO, Goblin ранний)
Аудио 5: AC3, 6 ch, 384 Kbps - Русский (AVO, Goblin ранний)
Аудио 6: AC3, 2 ch, 192 Kbps - Русский (AVO, Goblin поздний)
Аудио 7: DTS, 6 ch, 755 Kbps - Русский (AVO, Гаврилов)
Аудио 8: AC3, 6 ch, 384 Kbps - Русский (AVO, Гаврилов)
Аудио 9: DTS-HD MA, 6 ch, 4158 Kbps - Английский
Общее
Уникальный идентификатор : 102131917183415705455352928626259801587 (0x4CD5E44A42A0E56BFDE73146E7A435F3)
Полное имя : D: Pitch.Black.2000.DC.BDREMUX.2160p.HDR.seleZen.mkv
Формат : Matroska
Версия формата : Version 4
Размер файла : 59, 5 Гбайт
Продолжительность : 1 ч. 51 м.
Режим общего битрейта : Переменный
Общий поток : 76, 2 Мбит/сек
Название фильма : Pitch Black 2000 Director’s Cut 4K from селезень
Дата кодирования : UTC 2020-08-17 10: 58: 18
Программа кодирования : mkvmerge v40.0.0 (\'Old Town Road + Pony\') 64-bit
Библиотека кодирования : libebml v1.3.9 + libmatroska v1.5.2
Видео
Идентификатор : 1
Формат : HEVC
Формат/Информация : High Efficiency Video Coding
Профиль формата : Main10@L5.1@High
HDR format : SMPTE ST 2086, HDR10 compatible
Идентификатор кодека : V_MPEGH/ISO/HEVC
Продолжительность : 1 ч. 51 м.
Битрейт : 68, 1 Мбит/сек
Ширина : 3 840 пикселей
Высота : 2 160 пикселей
Соотношение сторон : 16: 9
Режим частоты кадров : Постоянный
Частота кадров : 24, 000 кадра/сек
Цветовое пространство : YUV
Субдискретизация насыщенности : 4: 2: 0 (Type 2)
Битовая глубина : 10 бит
Бит/(Пиксели*Кадры) : 0.342
Размер потока : 53, 1 Гбайт (89%)
Библиотека кодирования : x265 3.3+21-6bb2d88029c2: WindowsGCC 6.3.064 bit 10bit
Настройки программы : cpuid=1111039/frame-threads=6/numa-pools=16, 16/wpp/no-pmode/no-pme/no-psnr/no-ssim/log-level=2/input-csp=1/input-res=3840x2160/interlace=0/total-frames=531/level-idc=51/high-tier=1/uhd-bd=1/ref=5/no-allow-non-conformance/repeat-t_heads/annexb/aud/hrd/info/hash=0/no-temporal-layers/no-open-gop/min-keyint=1/keyint=24/gop-lookahead=0/bframes=3/b-adapt=2/b-pyramid/bframe-bias=0/rc-lookahead=24/lookahead-slices=0/scenecut=40/hist-scenecut=0/radl=0/no-splice/no-intra-refresh/ctu=64/min-cu-size=8/rect/amp/max-tu-size=32/tu-inter-depth=3/tu-intra-depth=3/limit-tu=0/rdoq-level=2/dynamic-rd=0.00/no-ssim-rd/signhide/tskip/nr-intra=0/nr-inter=0/constrained-intra/no-strong-intra-smoothing/max-merge=5/limit-refs=0/no-limit-modes/me=3/subme=4/merange=57/temporal-mvp/no-frame-dup/no-hme/weightp/weightb/no-analyze-src-pics/deblock=-2: -2/no-sao/no-sao-non-deblock/rd=6/selective-sao=0/no-early-skip/rskip/no-fast-intra/no-tskip-fast/cu-lossless/b-intra/no-splitrd-skip/rdpenalty=0/psy-rd=5.00/psy-rdoq=50.00/no-rd-refine/no-lossless/cbqpoffs=0/crqpoffs=0/rc=abr/bitrate=68000/qcomp=0.60/qpstep=4/stats-write=1/stats-read=0/slow-firstpass/vbv-maxrate=85000/vbv-bufsize=99000/vbv-init=0.9/ipratio=1.40/pbratio=1.30/aq-mode=2/aq-strength=0.80/no-cutree/zone-count=0/no-strict-cbr/qg-size=32/no-rc-grain/qpmax=69/qpmin=0/no-const-vbv/sar=1/overscan=0/videoformat=5/range=0/colorprim=9/transfer=16/colormatrix=9/chromaloc=1/chromaloc-top=2/chromaloc-bottom=2/display-window=0/master-display=G(8500, 39850)B(6550, 2300)R(35400, 14600)WP(15635, 16450)L(10000000, 1)/cll=0, 0/min-luma=0/max-luma=1023/log2-max-poc-lsb=8/vui-timing-info/vui-hrd-info/slices=1/no-opt-qp-pps/no-opt-ref-list-length-pps/no-multi-pass-opt-rps/scenecut-bias=0.05/hist-threshold=0.01/no-opt-cu-delta-qp/no-aq-motion/hdr10/hdr10-opt/no-dhdr10-opt/no-idr-recovery-sei/analysis-reuse-level=0/analysis-save-reuse-level=0/analysis-load-reuse-level=0/scale-factor=0/refine-intra=0/refine-inter=0/refine-mv=1/refine-ctu-distortion=0/no-limit-sao/ctu-info=0/no-lowpass-dct/refine-analysis-type=0/copy-pic=1/max-ausize-factor=1.0/no-dynamic-refine/no-single-sei/no-hevc-aq/no-svt/no-field/qp-adaptation-range=1.00/no-scenecut-aware-qpconformance-window-offsets/right=0/bottom=0/decoder-max-rate=0
Язык : English
Default : Да
Forced : Нет
Цветовой диапазон : Limited
Основные цвета : BT.2020
Характеристики трансфера : PQ
Коэффициенты матрицы : BT.2020 non-constant
Mastering display color primaries : BT.2020
Mastering display luminance : min: 0.0001 cd/m2, max: 1000 cd/m2
Аудио #1
Идентификатор : 2
Формат : DTS
Формат/Информация : Digital Theater Systems
Идентификатор кодека : A_DTS
Продолжительность : 1 ч. 51 м.
Вид битрейта : Постоянный
Битрейт : 755 Кбит/сек
Каналы : 6 каналов
Channel layout : C L R Ls Rs LFE
Частота : 48, 0 КГц
Частота кадров : 93, 750 кадра/сек (512 SPF)
Битовая глубина : 24 бит
Метод сжатия : С потерями
Размер потока : 603 Мбайт (1%)
Заголовок : Dub
Язык : Russian
Default : Да
Forced : Да
Аудио #2
Идентификатор : 3
Формат : AC-3
Формат/Информация : Audio Coding 3
Коммерческое название : Dolby Digital
Идентификатор кодека : A_AC3
Продолжительность : 1 ч. 51 м.
Вид битрейта : Постоянный
Битрейт : 384 Кбит/сек
Каналы : 6 каналов
Channel layout : L R C LFE Ls Rs
Частота : 48, 0 КГц
Частота кадров : 31, 250 кадров/сек (1536 SPF)
Метод сжатия : С потерями
Размер потока : 307 Мбайт (1%)
Заголовок : Dub
Язык : Russian
Service kind : Complete Main
Default : Нет
Forced : Нет
Аудио #3
Идентификатор : 4
Формат : AC-3
Формат/Информация : Audio Coding 3
Коммерческое название : Dolby Digital
Идентификатор кодека : A_AC3
Продолжительность : 1 ч. 51 м.
Вид битрейта : Постоянный
Битрейт : 384 Кбит/сек
Каналы : 6 каналов
Channel layout : L R C LFE Ls Rs
Частота : 48, 0 КГц
Частота кадров : 31, 250 кадров/сек (1536 SPF)
Метод сжатия : С потерями
Размер потока : 307 Мбайт (1%)
Заголовок : MVO
Язык : Russian
Service kind : Complete Main
Default : Нет
Forced : Нет
Аудио #4
Идентификатор : 5
Формат : DTS
Формат/Информация : Digital Theater Systems
Идентификатор кодека : A_DTS
Продолжительность : 1 ч. 51 м.
Вид битрейта : Постоянный
Битрейт : 755 Кбит/сек
Каналы : 6 каналов
Channel layout : C L R Ls Rs LFE
Частота : 48, 0 КГц
Частота кадров : 93, 750 кадра/сек (512 SPF)
Битовая глубина : 24 бит
Метод сжатия : С потерями
Размер потока : 603 Мбайт (1%)
Заголовок : AVO Goblin-ранний
Язык : Russian
Default : Нет
Forced : Нет
Аудио #5
Идентификатор : 6
Формат : AC-3
Формат/Информация : Audio Coding 3
Коммерческое название : Dolby Digital
Идентификатор кодека : A_AC3
Продолжительность : 1 ч. 51 м.
Вид битрейта : Постоянный
Битрейт : 384 Кбит/сек
Каналы : 6 каналов
Channel layout : L R C LFE Ls Rs
Частота : 48, 0 КГц
Частота кадров : 31, 250 кадров/сек (1536 SPF)
Метод сжатия : С потерями
Размер потока : 307 Мбайт (1%)
Заголовок : AVO Goblin-ранний
Язык : Russian
Service kind : Complete Main
Default : Нет
Forced : Нет
Аудио #6
Идентификатор : 7
Формат : AC-3
Формат/Информация : Audio Coding 3
Коммерческое название : Dolby Digital
Идентификатор кодека : A_AC3
Продолжительность : 1 ч. 51 м.
Вид битрейта : Постоянный
Битрейт : 192 Кбит/сек
Каналы : 2 канала
Channel layout : L R
Частота : 48, 0 КГц
Частота кадров : 31, 250 кадров/сек (1536 SPF)
Метод сжатия : С потерями
Размер потока : 154 Мбайт (0%)
Заголовок : AVO Goblin-поздний
Язык : Russian
Service kind : Complete Main
Default : Нет
Forced : Нет
Аудио #7
Идентификатор : 8
Формат : DTS
Формат/Информация : Digital Theater Systems
Идентификатор кодека : A_DTS
Продолжительность : 1 ч. 51 м.
Вид битрейта : Постоянный
Битрейт : 755 Кбит/сек
Каналы : 6 каналов
Channel layout : C L R Ls Rs LFE
Частота : 48, 0 КГц
Частота кадров : 93, 750 кадра/сек (512 SPF)
Битовая глубина : 24 бит
Метод сжатия : С потерями
Размер потока : 603 Мбайт (1%)
Заголовок : AVO Gavrilov
Язык : Russian
Default : Нет
Forced : Нет
Аудио #8
Идентификатор : 9
Формат : AC-3
Формат/Информация : Audio Coding 3
Коммерческое название : Dolby Digital
Идентификатор кодека : A_AC3
Продолжительность : 1 ч. 51 м.
Вид битрейта : Постоянный
Битрейт : 384 Кбит/сек
Каналы : 6 каналов
Channel layout : L R C LFE Ls Rs
Частота : 48, 0 КГц
Частота кадров : 31, 250 кадров/сек (1536 SPF)
Метод сжатия : С потерями
Размер потока : 307 Мбайт (1%)
Заголовок : AVO Gavrilov
Язык : Russian
Service kind : Complete Main
Default : Нет
Forced : Нет
Аудио #9
Идентификатор : 10
Формат : DTS XLL
Формат/Информация : Digital Theater Systems
Коммерческое название : DTS-HD Master Audio
Идентификатор кодека : A_DTS
Продолжительность : 1 ч. 51 м.
Вид битрейта : Переменный
Битрейт : 4 158 Кбит/сек
Каналы : 6 каналов
Channel layout : C L R Ls Rs LFE
Частота : 48, 0 КГц
Частота кадров : 93, 750 кадра/сек (512 SPF)
Битовая глубина : 24 бит
Метод сжатия : Без потерь
Размер потока : 3, 25 Гбайт (5%)
Заголовок : Original
Язык : English
Default : Нет
Forced : Нет
Текст #1
Идентификатор : 11
Формат : UTF-8
Идентификатор кодека : S_TEXT/UTF8
Идентификатор кодека/Информация : UTF-8 Plain Text
Продолжительность : 1 ч. 44 м.
Битрейт : 54 бит/сек
Count of elements : 779
Размер потока : 41, 8 Кбайт (0%)
Заголовок : Full
Язык : Russian
Default : Нет
Forced : Нет
Текст #2
Идентификатор : 12
Формат : UTF-8
Идентификатор кодека : S_TEXT/UTF8
Идентификатор кодека/Информация : UTF-8 Plain Text
Продолжительность : 1 ч. 44 м.
Битрейт : 65 бит/сек
Count of elements : 817
Размер потока : 50, 4 Кбайт (0%)
Заголовок : Full Клавдиенко
Язык : Russian
Default : Нет
Forced : Нет
Текст #3
Идентификатор : 13
Формат : UTF-8
Идентификатор кодека : S_TEXT/UTF8
Идентификатор кодека/Информация : UTF-8 Plain Text
Продолжительность : 1 ч. 44 м.
Битрейт : 69 бит/сек
Count of elements : 814
Размер потока : 53, 1 Кбайт (0%)
Заголовок : Full Goblin
Язык : Russian
Default : Нет
Forced : Нет
Текст #4
Идентификатор : 14
Формат : UTF-8
Идентификатор кодека : S_TEXT/UTF8
Идентификатор кодека/Информация : UTF-8 Plain Text
Продолжительность : 1 ч. 44 м.
Битрейт : 37 бит/сек
Count of elements : 1037
Размер потока : 28, 8 Кбайт (0%)
Заголовок : Full
Язык : English
Default : Нет
Forced : Нет
Текст #5
Идентификатор : 15
Формат : UTF-8
Идентификатор кодека : S_TEXT/UTF8
Идентификатор кодека/Информация : UTF-8 Plain Text
Продолжительность : 1 ч. 44 м.
Битрейт : 41 бит/сек
Count of elements : 1179
Размер потока : 31, 5 Кбайт (0%)
Заголовок : SDH
Язык : English
Default : Нет
Forced : Нет
Меню
00: 00: 00.000 : en: Глава 01
00: 11: 13.208 : en: Глава 02
00: 18: 27.458 : en: Глава 03
00: 27: 09.708 : en: Глава 04
00: 36: 45.417 : en: Глава 05
00: 46: 35.917 : en: Глава 06
00: 56: 13.625 : en: Глава 07
01: 02: 39.625 : en: Глава 08
01: 12: 17.333 : en: Глава 09
01: 19: 15.750 : en: Глава 10
01: 33: 36.583 : en: Глава 11
01: 39: 17.708 : en: Глава 12
Диск на Blu-ray.com
Просмотр 4K HDR-контента на ПК

Скриншоты для ознакомления



Все одноименные релизы в Клубе
Время раздачи: 24/7 (мультитрекер)
 
Уважаемый посетитель, Вы зашли на сайт как незарегистрированный пользователь. Мы рекомендуем Вам зарегистрироваться либо зайти на сайт под своим именем.

Другие новости по теме:

  • Военная приемка. Проект 636. «Чёрная дыра» (2015) SATRip скачать через торрент бесплатно
  • Чёрная дыра / Pitch Black (2000) BDRip
  • Чёрная дыра / Pitch Black (1999) WEB-DLRip [Theatrical Cut] [Open Matte]
  • Чёрная дыра / Pitch Black (2000) BDRip [H.264 / 1080p-LQ]
  • Чёрная дыра / Pitch Black (2000) WEB-DL [H.264 / 1080p] [Theatrical Cut] [Open Matte]
  • Bishoujo Senshi Sailor Moon Super S: Sailor 9 Senshi Shuuketsu! Black Dream Hole no Kiseki | Pretty Soldier Sailor Moon Super S: Black Dream Hole | Красавица-воин Сейлор Мун Супер Эс: Чёрная дыра снов [1995, Movie] BDRip 1080p raw


  • Информация
    Посетители, находящиеся в группе Гости, не могут оставлять комментарии в данной новости.
    Главная страница | Регистрация | Добавить новость | Новое на сайте Copyright © 2019. bolt.mmix.club All Rights Reserved