Подписывайся на наш канал в Telegram https://t.me/torrentok и получи доступ к торрентам без ограничений!
. bolt.mmix.club
Авторские права
con...@...Показать
Вход на сайт
Логин:
Пароль:
 
Навигация по сайту
Популярные статьи

Торрент трекер | Скачать торрент | Скачать Через Торрент | Скачать торрент бесплатно | Скачать торрент без регистрации Фильмы торрент скачать Мир! Дружба! Жвачка! (2020) WEB-DLRip (сезон 1, серии 1-2 из 8) (обновляемая) торрент скачать бесплатно

Мир! Дружба! Жвачка! (2020) WEB-DLRip (сезон 1, серии 1-2 из 8) (обновляемая) торрент скачать бесплатно

Фильмы торрент скачать
Мир! Дружба! Жвачка! (2020) WEB-DLRip (сезон 1, серии 1-2 из 8) (обновляемая)Производство: Россия/Good Story Media
Жанр: комедия, драма
Режиссер: Илья Аксенов

Актеры
Егор Губарев, Егор Абрамов, Фёдор Рощин, Валентина Ляпина, Юрий Борисов, Ксения Каталымова, Степан Девонин, Сергей Степин, Андрей Харыбин, Илья Чуканов

Описание

1993 год. 14-летний Санька Рябинин живет обычной подростковой жизнью — ищет приключений, пытается защититься от районных хулиганов, не хочет ходить в музыкалку, не знает, как общаться с девчонками и с кого из взрослых брать пример. С одной стороны — честная, но бедная семья с мамой-продавщицей и папой-доцентом, с другой — опасный мир афганского ветерана дяди Алика, которого сыграл Юрий Борисов. А тут еще и девочка Женя, знакомство с которой запускает череду необратимых событий, которые навсегда изменят жизнь Саньки, его семьи и друзей Вовки и Илюши. Сбегая от хулиганов, Санька угоняет машину местного криминального авторитета, и в один миг все меняется. А дальше - разборки со взрослыми кавказцами, ровесниками, между родителями на кухне, со своими пацанами и так далее. Сможет ли он справиться со всеми проблемами, оказавшись в самом сердце событий? Удастся ли ему спасти семью и понять, наконец, – кто он? Понятно только одно – жизнь уже не будет такой как прежде. Ни для самого Саньки, ни для всей России.

Возраст: 18+ (зрителям, достигшим 18 лет. запрещено для детей)
Дата российской премьеры: 23 апреля 2020
Релиз от: 25Kuzmich
Продолжительность: ~00: 48: 00 серия
Качество видео: WEB-DLRip
Внимание! Присутствует ненормативная лексика.
Видео: Xvid, 720x304 (2, 35: 1), ~1485 Kbps
Аудио: AC3, 2 ch, 192 Kbps
General
Complete name : D: Mir.druzba.zvacka.2020.WEB-DLRip.25KuzmichMir.druzba.zvacka.e01.WEB-DLRip.25Kuzmich.avi
Format : AVI
Format/Info : Audio Video Interleave
File size : 600 MiB
Duration : 49 min 42 s
Overall bit rate : 1 688 kb/s
Writing application : VirtualDubMod 1.5.10.3 |www.virtualdub-fr.org|| (build 2550/release)
Writing library : VirtualDubMod build 2550/release
Video
ID : 0
Format : MPEG-4 Visual
Format profile : Advanced Simple@L5
Format settings : BVOP1
Format settings, BVOP : 1
Format settings, QPel : No
Format settings, GMC : No warppoints
Format settings, Matrix : Default (MPEG)
Codec ID : XVID
Codec ID/Hint : XviD
Duration : 49 min 42 s
Bit rate : 1 486 kb/s
Width : 720 pixels
Height : 304 pixels
Display aspect ratio : 2.35: 1
Frame rate : 25.000 FPS
Color space : YUV
Chroma subsampling : 4: 2: 0
Bit depth : 8 bits
Scan type : Progressive
Compression mode : Lossy
Bits/(Pixel*Frame) : 0.272
Stream size : 528 MiB (88%)
Writing library : XviD 73
Audio
ID : 1
Format : AC-3
Format/Info : Audio Coding 3
Codec ID : 2000
Duration : 49 min 42 s
Bit rate mode : Constant
Bit rate : 192 kb/s
Channel(s) : 2 channels
Channel positions : Front: L R
Sampling rate : 48.0 kHz
Frame rate : 31.250 FPS (1536 SPF)
Bit depth : 16 bits
Compression mode : Lossy
Stream size : 68.3 MiB (11%)
Alignment : Split accross interleaves
Interleave, duration : 40 ms (1.00 video frame)
Interleave, preload duratio : 500 ms
Service kind : Complete Main

Скриншоты для ознакомления



Все одноименные релизы в Клубе
Время раздачи: 24/7 (круглосуточно) (до появления первых 3-5 скачавших)

Онлайн видео Мир! Дружба! Жвачка! (2020) WEB

 
Уважаемый посетитель, Вы зашли на сайт как незарегистрированный пользователь. Мы рекомендуем Вам зарегистрироваться либо зайти на сайт под своим именем.

Другие новости по теме:

  • Мир! Дружба! Жвачка! (2020) WEB-DL [H.264 / 720p-LQ] (сезон 1, серии 1-2 из 8) (обновляемая)
  • Мир! Дружба! Жвачка! (2020) WEB-DL [H.264 / 1080p-LQ] (сезон 1, серии 1-2 из 8) (обновляемая)
  • Мир! Дружба! Жвачка! (2020) WEBRip [H.264] (сезон 1, серии 1-8 из 8 + Фильм о сериале)


  • Информация
    Посетители, находящиеся в группе Гости, не могут оставлять комментарии в данной новости.
    Главная страница | Регистрация | Добавить новость | Новое на сайте Copyright © 2019. bolt.mmix.club All Rights Reserved