Подписывайся на наш канал в Telegram https://t.me/torrentok и получи доступ к торрентам без ограничений!
. bolt.mmix.club
Авторские права
con...@...Показать
Вход на сайт
Логин:
Пароль:
 
Навигация по сайту
Популярные статьи

Торрент трекер | Скачать торрент | Скачать через Торрент | Скачать торрент бесплатно | Скачать торрент без регистрации Фильмы торрент скачать Морские паразиты / Sea Fever (2019) WEB-DLRip [H.264 / 1080p-LQ] [MVO, AD] торрент скачать бесплатно

Морские паразиты / Sea Fever (2019) WEB-DLRip [H.264 / 1080p-LQ] [MVO, AD] торрент скачать бесплатно

Фильмы торрент скачать
Морские паразиты / Sea Fever (2019) WEB-DLRip [H.264 / 1080p-LQ] [MVO, AD]Производство: Ирландия, США, Великобритания, Швеция, Бельгия, Bright Moving Pictures, Creativity Capital, Fantastic Films
Жанр: Ужасы, фантастика
Режиссер: Ниса Хардиман

Актеры
Конни Нильсен, Гермиона Корфилд, Дугрей Скотт, Олуэн Фуэре, Джек Хикки, Ардалан Эсмаили, Эли Буаказе

Описание

Изучающая биологию и природные аномалии студентка Шивон отправляется проходить практику на рыболовецкое судно. Поездка обещает принести новые впечатления и богатый материал для научных исследований. Однако корабль под управлением капитана и его жены оказывается в запретной зоне. Команде предстоит столкнуться с неизведанным и опасным морским чудовищем... Судьба всех находящихся на борту внезапно оказывается в руках студентки. Сумеет ли Шивон что-то предпринять, прежде чем экипаж в полном составе отправится на тот свет?

Возраст: 18+ (зрителям, достигшим 18 лет. запрещено для детей)
Дата мировой премьеры: 5 сентября 2019
Дата российской премьеры: 30 апреля 2020
Релиз от: LakeFilms
Продолжительность: 01: 35: 07
Качество видео: WEB-DLRip
Перевод: Двуголосый любительский (LakeFilms)
Субтитры: отсутствуют
Реклама: присутствуют видео, аудио, текстовые вставки рекламы
Видео: AVC/H.264, 1920x800, ~3915 kbps
Аудио: AC3, 2 ch, 384 kbps
General
Unique ID : 240898928701603072291606956239456869320 (0xB53B722F65A82B4CA2A5A9174DB49BC8)
Complete name : E: Sea.Fever.2019.1080p.WEB-DL.LakeFilms.mkv
Format : Matroska
Format version : Version 4/Version 2
File size : 2.91 GiB
Duration : 1 h 35 min
Overall bit rate mode : Constant
Overall bit rate : 4 387 kb/s
Encoded date : UTC 2020-04-10 19: 55: 58
Writing application : Pegasys Standard Library
Writing library : Pegasys Standard Library
Video
ID : 2
Format : AVC
Format/Info : Advanced Video Codec
Format profile : High@L4
Format settings : CABAC/5 Ref Frames
Format settings, CABAC : Yes
Format settings, RefFrames : 5 frames
Codec ID : V_MPEG4/ISO/AVC
Duration : 1 h 35 min
Bit rate mode : Constant
Bit rate : 3 915 kb/s
Nominal bit rate : 4 500 kb/s/4 500 kb/s
Width : 1 920 pixels
Height : 800 pixels
Display aspect ratio : 2.40: 1
Frame rate mode : Constant
Frame rate : 23.976 (24000/1001) FPS
Standard : Component
Color space : YUV
Chroma subsampling : 4: 2: 0
Bit depth : 8 bits
Scan type : Progressive
Bits/(Pixel*Frame) : 0.106
Stream size : 2.60 GiB (89%)
Writing library : x264 core 136
Encoding settings : cabac=1/ref=5/deblock=1: 0: 0/analyse=0x3: 0x113/me=hex/subme=7/psy=1/psy_rd=1.00: 0.00/mixed_ref=1/me_range=16/chroma_me=1/trellis=1/8x8dct=1/cqm=2/deadzone=21, 11/fast_pskip=1/chroma_qp_offset=-2/threads=24/lookahead_threads=4/sliced_threads=0/slices=1/nr=0/decimate=1/interlaced=0/bluray_compat=0/constrained_intra=0/bframes=3/b_pyramid=0/b_adapt=1/b_bias=0/direct=1/weightb=1/open_gop=0/weightp=2/keyint=250/keyint_min=23/scenecut=40/intra_refresh=0/rc_lookahead=40/rc=cbr/mbtree=1/bitrate=4500/ratetol=1.0/qcomp=0.60/qpmin=3/qpmax=69/qpstep=4/vbv_maxrate=4500/vbv_bufsize=4500/nal_hrd=cbr/ip_ratio=1.40/aq=1: 1.00
Default : Yes
Forced : No
Color range : Limited
Color primaries : BT.709
Transfer characteristics : BT.709
Matrix coefficients : BT.709
Audio
ID : 1
Format : AC-3
Format/Info : Audio Coding 3
Codec ID : A_AC3
Duration : 1 h 35 min
Bit rate mode : Constant
Bit rate : 384 kb/s
Channel(s) : 2 channels
Channel positions : Front: L R
Sampling rate : 48.0 kHz
Frame rate : 31.250 FPS (1536 SPF)
Bit depth : 16 bits
Compression mode : Lossy
Stream size : 261 MiB (9%)
Service kind : Complete Main
Default : Yes
Forced : No

Скриншоты для ознакомления



Все одноименные релизы в Клубе
Время раздачи: 24/7 (до появления первых 3-5 скачавших) (до появления первых 3-5 скачавших)

Онлайн видео Морские паразиты

 
Уважаемый посетитель, Вы зашли на сайт как незарегистрированный пользователь. Мы рекомендуем Вам зарегистрироваться либо зайти на сайт под своим именем.

Другие новости по теме:

  • Морские паразиты / Sea Fever (2019) BDRip [H.264 / 1080p] [DVO] [PR]


  • Информация
    Посетители, находящиеся в группе Гости, не могут оставлять комментарии в данной новости.
    Главная страница | Регистрация | Добавить новость | Новое на сайте Copyright © 2019. bolt.mmix.club All Rights Reserved