Подписывайся на наш канал в Telegram https://t.me/torrentok и получи доступ к торрентам без ограничений!
. bolt.mmix.club
Авторские права
con...@...Показать
Вход на сайт
Логин:
Пароль:
 
Навигация по сайту
Популярные статьи

Торрент трекер | Скачать торрент | Скачать через Торрент | Скачать торрент бесплатно | Скачать торрент без регистрации Фильмы торрент скачать Кинг Конг / King Kong (1976) BDRip [H.264 / 1080p] торрент скачать бесплатно

Кинг Конг / King Kong (1976) BDRip [H.264 / 1080p] торрент скачать бесплатно

Фильмы торрент скачать
Кинг Конг / King Kong (1976) BDRip [H.264 / 1080p]Производство: США/Dino De Laurentiis Productions
Жанр: фантастика, фэнтези, триллер, приключения
Режиссер: Джон Гиллермин

Актеры
Джефф Бриджес, Чарльз Гродин, Джессика Лэнг, Джон Рэндольф, Рене Обержонуа, Джулиус Харрис, Джек О’Хэллоран, Деннис Фимпл, Эд Лотер, Хорхе Морено

Описание

Нефтеразведочная экспедиция компании Petrox, к которой хитростью присоединился палеонтолог и защитник природы Джек Прескотт, отправляется на малоизученный тихоокеанский остров. По пути экспедиция спасает потерпевшую кораблекрушение голливудскую звезду Дуэн. На острове нефтяники сталкиваются с гигантской гориллой, которую местные жители называют Конг. Обезьяна похищает Дуан, но Прескотту удается её освободить. Руководитель экспедиции решает, что раз уж нефти на острове найти не удалось, то можно вывезти с него хотя бы обезьяну и заработать, показывая её нью-йоркской публике. Однако во время первого же представления Конг освобождается и начинает крушить все на своём пути...

Возраст: 12+ (зрителям, достигшим 12 лет)
Рейтинг MPAA: PG (рекомендуется присутствие родителей)
Релиз от: SergeyAms
Продолжительность: 02: 14: 28
Качество видео: BDRip
Перевод: Многоголосый профессиональный, одноголосый авторский
Субтитры: русские (полные), английские (полные)
Видео: AVC/H.264, 1920x818, ~12 Mbps
Аудио #1: AC3, 6 ch, 448 kbps - русский (MVO, Амальгама)
Аудио #2: AC3, 2 ch, 192 kbps - русский (MVO, НТВ+)
Аудио #3: AC3, 2 ch, 192 kbps - русский (AVO, Г. Либергал)
Аудио #4: DTS, 6 ch, 768 kbps - английский
x264 info: frame I: 1100 Avg QP: 17.86 size: 167310
x264 info: frame P: 38092 Avg QP: 19.77 size: 94045
x264 info: frame B: 154250 Avg QP: 21.18 size: 54027
Unique ID : 234672647845925797863942732737336121814 (0xB08C4ED690C9DA1B382494A5AE4919D6)
Complete name : D: TempNNMKing Kong.1976.1080p.mkv
Format : Matroska
Format version : Version 4/Version 2
File size : 12.8 GiB
Duration : 2h 14mn
Overall bit rate : 13.6 Mbps
Movie name : King Kong.1976
Video
ID : 1
Format : AVC
Format/Info : Advanced Video Codec
Format profile : High@L4.1
Format settings, CABAC : Yes
Format settings, ReFrames : 5 frames
Codec ID : V_MPEG4/ISO/AVC
Duration : 2h 14mn
Bit rate : 12.0 Mbps
Width : 1 920 pixels
Height : 818 pixels
Display aspect ratio : 2.35: 1
Frame rate mode : Constant
Frame rate : 23.976 fps
Color space : YUV
Chroma subsampling : 4: 2: 0
Bit depth : 8 bits
Scan type : Progressive
Bits/(Pixel*Frame) : 0.319
Stream size : 11.0 GiB (86%)
Title : King Kong.1976_ .org
Writing library : x264 core 157 r2935 545de2f
Encoding settings : cabac=1/ref=5/deblock=1: -2: -2/analyse=0x3: 0x113/me=umh/subme=10/psy=1/psy_rd=1.05: 0.10/mixed_ref=1/me_range=32/chroma_me=1/trellis=2/8x8dct=1/cqm=0/deadzone=21, 11/fast_pskip=0/chroma_qp_offset=-3/threads=5/lookahead_threads=1/sliced_threads=0/nr=0/decimate=0/interlaced=0/bluray_compat=0/constrained_intra=0/bframes=8/b_pyramid=2/b_adapt=2/b_bias=0/direct=1/weightb=1/open_gop=0/weightp=2/keyint=240/keyint_min=24/scenecut=40/intra_refresh=0/rc=2pass/mbtree=0/bitrate=12000/ratetol=1.0/qcomp=0.70/qpmin=3/qpmax=69/qpstep=4/cplxblur=20.0/qblur=0.5/ip_ratio=1.40/pb_ratio=1.30/aq=2: 1.00
Language : English
Default : Yes
Forced : No
Audio #1
ID : 2
Format : AC-3
Format/Info : Audio Coding 3
Mode extension : CM (complete main)
Format settings, Endianness : Big
Codec ID : A_AC3
Duration : 2h 14mn
Bit rate mode : Constant
Bit rate : 448 Kbps
Channel(s) : 6 channels
Channel positions : Front: L C R, Side: L R, LFE
Sampling rate : 48.0 KHz
Bit depth : 16 bits
Compression mode : Lossy
Stream size : 431 MiB (3%)
Title : Амальгама
Language : Russian
Default : Yes
Forced : No
Audio #2
ID : 3
Format : AC-3
Format/Info : Audio Coding 3
Mode extension : CM (complete main)
Format settings, Endianness : Big
Codec ID : A_AC3
Duration : 2h 14mn
Bit rate mode : Constant
Bit rate : 192 Kbps
Channel(s) : 2 channels
Channel positions : Front: L R
Sampling rate : 48.0 KHz
Bit depth : 16 bits
Compression mode : Lossy
Stream size : 185 MiB (1%)
Title : НТВ+
Language : Russian
Default : No
Forced : No
Audio #3
ID : 4
Format : AC-3
Format/Info : Audio Coding 3
Mode extension : CM (complete main)
Format settings, Endianness : Big
Codec ID : A_AC3
Duration : 2h 14mn
Bit rate mode : Constant
Bit rate : 192 Kbps
Channel(s) : 2 channels
Channel positions : Front: L R
Sampling rate : 48.0 KHz
Bit depth : 16 bits
Compression mode : Lossy
Stream size : 185 MiB (1%)
Title : Г. Либергал
Language : Russian
Default : No
Forced : No
Audio #4
ID : 5
Format : DTS
Format/Info : Digital Theater Systems
Mode : 16
Format settings, Endianness : Big
Codec ID : A_DTS
Duration : 2h 14mn
Bit rate mode : Constant
Bit rate : 768 Kbps
Channel(s) : 6 channels
Channel positions : Front: L C R, Side: L R, LFE
Sampling rate : 48.0 KHz
Bit depth : 16 bits
Compression mode : Lossy
Stream size : 739 MiB (6%)
Language : English
Default : No
Forced : No
Text #1
ID : 6
Format : UTF-8
Codec ID : S_TEXT/UTF8
Codec ID/Info : UTF-8 Plain Text
Language : Russian
Default : Yes
Forced : No
Text #2
ID : 7
Format : UTF-8
Codec ID : S_TEXT/UTF8
Codec ID/Info : UTF-8 Plain Text
Language : English
Default : No
Forced : No
Menu
00: 00: 00.000 : : Chapter 01
00: 07: 45.089 : : Chapter 02
00: 14: 36.709 : : Chapter 03
00: 24: 06.862 : : Chapter 04
00: 32: 32.367 : : Chapter 05
00: 40: 28.259 : : Chapter 06
00: 46: 29.203 : : Chapter 07
00: 51: 32.005 : : Chapter 08
01: 00: 10.023 : : Chapter 09
01: 06: 26.983 : : Chapter 10
01: 12: 03.944 : : Chapter 11
01: 19: 18.754 : : Chapter 12
01: 25: 25.120 : : Chapter 13
01: 30: 36.848 : : Chapter 14
01: 35: 03.322 : : Chapter 15
01: 42: 00.322 : : Chapter 16
01: 49: 40.574 : : Chapter 17
01: 57: 03.933 : : Chapter 18
02: 03: 43.040 : : Chapter 19
02: 12: 04.333 : : Chapter 20
02: 14: 28.101 : : Chapter 21

Скриншоты для ознакомления



Все одноименные релизы в Клубе
Время раздачи: 24/7 (до появления первых 3-5 скачавших)

Онлайн видео Кинг Конг


Кинг Конг/King Kong (1976) BDRip [H.264/1080p]
 
Уважаемый посетитель, Вы зашли на сайт как незарегистрированный пользователь. Мы рекомендуем Вам зарегистрироваться либо зайти на сайт под своим именем.

Другие новости по теме:

  • Кинг Конг / King Kong (2005) BDRip [1080p] [Extended Cut] [hand made 60fps] скачать через торрент бесплатно
  • Кинг Конг / King Kong (2005) BDRip [H.264 / 1080p] [Theatrical Cut] скачать через торрент бесплатно
  • Кинг Конг / King Kong (2005) BDRip [H.264 / 720p] [Extended cut] скачать через торрент бесплатно
  • Кинг Конг / King Kong (2005) BDRip [H.264 / 1080p-LQ] [Extended Cut] скачать через торрент бесплатно
  • Кинг Конг / King Kong (2005) BDRip [H.264 / 720p] [Extended Cut]
  • Кинг Конг / King Kong (2005) BDRip [H.265 / 1080p] [Extended Cut]
  • Кинг Конг / King Kong (2005) HDTVRip [H.264 / 1080p] [Extended Cut] [Open Matte]
  • Кинг Конг: Остров черепа / Kong: Skull Island (2017) WEBRip [H.264 / 1080p] [Трейлер]


  • Информация
    Посетители, находящиеся в группе Гости, не могут оставлять комментарии в данной новости.
    Главная страница | Регистрация | Добавить новость | Новое на сайте Copyright © 2019. bolt.mmix.club All Rights Reserved