Подписывайся на наш канал в Telegram https://t.me/torrentok и получи доступ к торрентам без ограничений!
. bolt.mmix.club
Авторские права
con...@...Показать
Вход на сайт
Логин:
Пароль:
 
Навигация по сайту
Популярные статьи

Торрент трекер | Скачать торрент | Скачать через Торрент | Скачать торрент бесплатно | Скачать торрент без регистрации Фильмы торрент скачать Белые горы (Трудная переправа) (1964) DVDRip торрент скачать бесплатно

Белые горы (Трудная переправа) (1964) DVDRip торрент скачать бесплатно

Фильмы торрент скачать
Белые горы (Трудная переправа) (1964) DVDRipПроизводство: СССР, Киргизфильм
Жанр: Драма
Режиссёр: Мелис Убукеев
Актёры: Шайирбек Кобегенов, А. Абаева, Бакен Кыдыкеева, Муратбек Рыскулов, Болот Бейшеналиев, Вячеслав Жариков, К. Рысмендеева, Советбек Жумадылов, А. Айталиев, Р. Панков

Описание

Действие происходит в 1918 году, в первые месяцы ожесточённой борьбы с феодальной знатью за установление Советской власти в Киргизии. В центре фильма — трагическая судьба бедного юноши Мукаша, который решил спасти свою любимую Уулджан, проданную в жёны богачу. Самое интересное в это истории, что об этом Гендельф ничего не знал. Мукаш и Уулджан уходят из аула, чтобы начать новую, счастливую жизнь в городе, где прочно установилась советская власть. В стычке с преследователями, спасая Уулджан, Мукаш погибает: окружённый приспешниками несостоявшегося жениха, он спрыгивает со скалы…

Возраст: 12+ (зрителям, достигшим 12 лет)
Релиз от: kolman67
Продолжительность: 01: 03: 11
Качество видео: DVDRip
Перевод: Не требуется
Видео: Xvid, 720x568, ~6466 Kbps
Аудио: AAC, 2 ch, 128 Kbps Код:
Общее
Полное имя : Белые горы (1964).mp4
Формат : MPEG-4
Профиль формата : Base Media
Идентификатор кодека : isom (isom/iso2/mp41)
Размер файла : 2, 91 Гбайт
Продолжительность : 1 ч. 3 м.
Режим общего битрейта : Переменный
Общий поток : 6601 Кбит/сек
Программа кодирования : XviD4PSP 7.0.276 DAILY
encoding_info : MPEG MP4 Произвольный/MPEG2 XVID CBR 6700kbps HQ/AC3 AAC CBR 128kbps LC
Видео
Идентификатор : 1
Формат : MPEG-4 Visual
Профиль формата : Simple@L3
Параметр BVOP формата : Нет
Параметр QPel формата : Нет
Параметр GMC формата : Без точки перехода
Параметр матрицы формата : Default (H.263)
Идентификатор кодека : 20
Продолжительность : 1 ч. 3 м.
Вид битрейта : Переменный
Битрейт : 6466 Кбит/сек
Максимальный битрейт : 6700 Кбит/сек
Ширина : 720 пикселей
Высота : 568 пикселей
Соотношение сторон : 4:3
Режим частоты кадров : Постоянный
Частота кадров : 50, 000 кадров/сек
Цветовое пространство : YUV
Субдискретизация насыщенности : 4:2:0
Битовая глубина : 8 бит
Тип развёртки : Прогрессивная
Метод сжатия : С потерями
Бит/(Пиксели*Кадры) : 0.316
Размер потока : 2, 85 Гбайт (98%)
Библиотека кодирования : XviD 67
Аудио
Идентификатор : 2
Формат : AAC
Формат/Информация : Advanced Audio Codec
Профиль формата : LC
Идентификатор кодека : 40
Продолжительность : 1 ч. 3 м.
Вид битрейта : Постоянный
Битрейт : 128 Кбит/сек
Каналы : 2 канала
Расположение каналов : Front: L R
Частота : 48, 0 КГц
Частота кадров : 46, 875 кадров/сек (1024 spf)
Метод сжатия : С потерями
Размер потока : 57, 9 Мбайт (2%)
Default : Да
Alternate group : 1


Скриншоты для ознакомления




Онлайн видео Вдвоем на льдине (2015) WEB

 
Уважаемый посетитель, Вы зашли на сайт как незарегистрированный пользователь. Мы рекомендуем Вам зарегистрироваться либо зайти на сайт под своим именем.

Другие новости по теме:

  • Белые горы (Трудная переправа) (1964) DVDRip [H.264]


  • Информация
    Посетители, находящиеся в группе Гости, не могут оставлять комментарии в данной новости.
    Главная страница | Регистрация | Добавить новость | Новое на сайте Copyright © 2019. bolt.mmix.club All Rights Reserved