Подписывайся на наш канал в Telegram https://t.me/torrentok и получи доступ к торрентам без ограничений!
. bolt.mmix.club
Авторские права
con...@...Показать
Вход на сайт
Логин:
Пароль:
 
Навигация по сайту
Популярные статьи

Торрент трекер | Скачать торрент | Скачать через Торрент | Скачать торрент бесплатно | Скачать торрент без регистрации Фильмы торрент скачать В сердце моря / In the Heart of the Sea (2015) DVD9 торрент скачать бесплатно

В сердце моря / In the Heart of the Sea (2015) DVD9 торрент скачать бесплатно

Фильмы торрент скачать
В сердце моря / In the Heart of the Sea (2015) DVD9Производство: США, Австралия, Испания, Великобритания, Канада/Warner Bros. Pictures, Village Roadshow Pictures, Roth Films, Imagine Entertainment
Жанр: Боевик, триллер, драма, приключения, биография, история
Режиссер: Рон Ховард
Продюсеры: Брайан Грейзер, Рон Ховард, Джо Рот

Актеры
Крис Хемсворт, Бенджамин Уокер, Киллиан Мёрфи, Брендан Глисон, Бен Уишоу, Мишель Фэйрли, Том Холланд, Пол Андерсон, Фрэнк Диллэйн, Джозеф Моул

Описание

В 1819 году американский корабль Эссекс с командой из двух десятков человек на борту отправился из порта в штате Массачусетс на китобойный промысел. Осенью 1820-го успешная на протяжении полутора лет охота была прервана атакой гигантского кашалота на судно, в результате чего морякам пришлось пересесть в шлюпки. В течение трех с лишним месяцев они боролись за выживание посреди океана…

Рейтинг MPAA: PG-13 (детям до 13 лет просмотр нежелателен)
Дата мировой премьеры: 2 декабря 2015
Дата российской премьеры: 3 декабря 2015, Каро-Премьер

Продолжительность: 01: 56: 44
Качество видео: DVD9 R5
Перевод: Дублированный (лицензия)
Субтитры: Вшитые отключаемые
Язык субтитров: Английский, чешский, эстонский, латышский, литовский, португальский, русский
Доп. материалы: Чейз и Поллард: достаток и храбрость, Крис Хемсворт и Бенджамин Уокер рассказывают о соперничестве своих персонажей
Видео: MPEG-2, 720x576@1024x576 (PAL 16: 9), ~5700 Kbps
Аудио 1: AC3 5.1, 384 Kbps (Английский - оригинал)
Аудио 2: AC3 5.1, 384 Kbps (Чешский - дублированный)
Аудио 3: AC3 5.1, 384 Kbps (Русский - дублированный) Код: Title: In the Heart of the Sea (2015) DVD9 R5
Size: 5.91 Gb ( 6 201 676, 00 KBytes ) - DVD-9
Enabled regions: 1, 2, 3, 4, 5, 6, 7, 8
VTS_01 :
Play Length: 01:56:44+00:00:00+00:07:10
Video: PAL 16:9 (720x576) VBR, Auto Letterboxed
Audio:
English (Dolby AC3, 6 ch)
Czech(Ceske) (Dolby AC3, 6 ch)
Russian (Dolby AC3, 6 ch)
English (Dolby AC3, 2 ch)
Subtitles:
English
Czech(Ceske)
Estonian
Latvian
Lithuanian
Portugues
Russian
Czech(Ceske)
Russian
VTS_02 :
Play Length: 00:00:10
Video: PAL 16:9 (720x576) VBR, Auto Letterboxed
Audio:
Not specified (Dolby AC3, 6 ch)
Subtitles:
Not specified
* Menus Information *
VIDEO_TS Menu
Video:
PAL 16:9 (720x576) VBR
Auto PanScan
Language Unit :
Title Menu
VTS_01 Menu
Video:
PAL 16:9 (720x576) VBR
Auto PanScan
Audio:
Not specified (Dolby AC3, 2 ch)
English Language Unit :
Root Menu
VTS_02 Menu
Video:
NTSC 4:3 (720x480) VBR
Auto PanScan, Auto Letterboxed
Language Unit :
Root Menu Код: Общее
Полное имя : F:ВидеоIn the Heart of the Sea (2015) DVD9 R5VIDEO_TSVTS_01_1.VOB
Формат : MPEG-PS
Размер файла : 1024 Мбайт
Продолжительность : 20 м.
Режим общего битрейта : Переменный
Общий поток : 7012 Кбит/сек
Видео
Идентификатор : 224 (0xE0)
Формат : MPEG Video
Версия формата : Version 2
Профиль формата : Main@Main
Параметр BVOP формата : Да
Параметр матрицы формата : Выборочная
Параметр GOP формата : Variable
Продолжительность : 20 м.
Вид битрейта : Переменный
Битрейт : 5721 Кбит/сек
Максимальный битрейт : 9800 Кбит/сек
Ширина : 720 пикселей
Высота : 576 пикселей
Соотношение сторон : 16:9
Частота кадров : 25, 000 кадров/сек
Стандарт вещания : PAL
Цветовое пространство : YUV
Субдискретизация насыщенности : 4:2:0
Битовая глубина : 8 бит
Тип развёртки : Прогрессивная
Порядок развёртки : Верхнее поле первое
Метод сжатия : С потерями
Бит/(Пиксели*Кадры) : 0.552
Временной код первого кадра : 00:59:58:00
Оригинал временного кода : Group of pictures t_head
GOP, открыто/закрыто : Открыто
GOP, открыто/закрыто на первом кадре : Закрыто
Размер потока : 835 Мбайт (82%)
Аудио #1
Идентификатор : 189 (0xBD)-128 (0x80)
Формат : AC-3
Формат/Информация : Audio Coding 3
Расширение режима : CM (complete main)
Параметр Endianness формата : Big
Режим смешивания : DVD-Video
Продолжительность : 20 м.
Вид битрейта : Постоянный
Битрейт : 384 Кбит/сек
Каналы : 6 каналов
Расположение каналов : Front: L C R, Side: L R, LFE
Частота : 48, 0 КГц
Частота кадров : 31, 250 кадров/сек (1536 spf)
Метод сжатия : С потерями
Размер потока : 56, 1 Мбайт (5%)
Аудио #2
Идентификатор : 189 (0xBD)-129 (0x81)
Формат : AC-3
Формат/Информация : Audio Coding 3
Расширение режима : CM (complete main)
Параметр Endianness формата : Big
Режим смешивания : DVD-Video
Продолжительность : 20 м.
Вид битрейта : Постоянный
Битрейт : 384 Кбит/сек
Каналы : 6 каналов
Расположение каналов : Front: L C R, Side: L R, LFE
Частота : 48, 0 КГц
Частота кадров : 31, 250 кадров/сек (1536 spf)
Метод сжатия : С потерями
Размер потока : 56, 1 Мбайт (5%)
Аудио #3
Идентификатор : 189 (0xBD)-130 (0x82)
Формат : AC-3
Формат/Информация : Audio Coding 3
Расширение режима : CM (complete main)
Параметр Endianness формата : Big
Режим смешивания : DVD-Video
Продолжительность : 20 м.
Вид битрейта : Постоянный
Битрейт : 384 Кбит/сек
Каналы : 6 каналов
Расположение каналов : Front: L C R, Side: L R, LFE
Частота : 48, 0 КГц
Частота кадров : 31, 250 кадров/сек (1536 spf)
Метод сжатия : С потерями
Размер потока : 56, 1 Мбайт (5%)
Меню


Скриншоты для ознакомления




Онлайн видео В сердце моря

 
Уважаемый посетитель, Вы зашли на сайт как незарегистрированный пользователь. Мы рекомендуем Вам зарегистрироваться либо зайти на сайт под своим именем.

Другие новости по теме:

  • В сердце моря / In the Heart of the Sea (2015) WEBRip [1080p] [Трейлер]
  • В сердце моря / In the Heart of the Sea (2015) DVDScr [звук с TS] скачать через торрент бесплатно
  • Оуэн Чейз | Китобоец «Эссекс». В сердце моря [сборник] (2016) [FB2]
  • В сердце моря / In the Heart of the Sea (2015) HDRip [Line]
  • В сердце моря / In the Heart of the Sea (2015) HDRip [Line]
  • В сердце моря / In the Heart of the Sea (2015) BDRip [H.264 / 1080p] [звук с TS]
  • В сердце моря / In the Heart of the Sea (2015) HDRip [H.264] [Line]
  • В сердце моря / In the Heart of the Sea (2015) BDRip [H.264 / 720p] [Line]


  • Информация
    Посетители, находящиеся в группе Гости, не могут оставлять комментарии в данной новости.
    Главная страница | Регистрация | Добавить новость | Новое на сайте Copyright © 2019. bolt.mmix.club All Rights Reserved