Подписывайся на наш канал в Telegram https://t.me/torrentok и получи доступ к торрентам без ограничений!
. bolt.mmix.club
Авторские права
con...@...Показать
Вход на сайт
Логин:
Пароль:
 
Навигация по сайту
Популярные статьи

Бен Орлин | Математика с дурацкими рисунками. Идеи, которые формируют нашу реальность (2020) [PDF]

(скачиваний: 20)
Джордж Саймон | Манипулятор в овечьей шкуре. Как не стать жертвой его уловок (2020) [FB2]

(скачиваний: 17)
Евгений Божьев | Просто исцеляйся сам. Что делать, когда все болит и ничего не помогает (2020) [EPUB]

(скачиваний: 14)
Андрей Мовчан, Алексей Митров | ПрОклятые экономики (2020) [FB2]

(скачиваний: 12)
Доктор Фил | В поисках волшебной таблетки. Научно-популярная сказка (2020) [FB2, PDF]

(скачиваний: 11)
Дженни Климан | Секс без людей, мясо без животных. Кто проектирует мир будущего (2020) [FB2]

(скачиваний: 10)
Сара Найт | Успокойся, чёрт возьми! (2020) [FB2]

(скачиваний: 9)
Максим Черкашин (сост.) | Сигары. Иллюстрированная энциклопедия (2013) [PDF]

(скачиваний: 8)
Дженна Маччиоки | Иммунитет. Наука о том, как быть здоровым (2020) [EPUB]

(скачиваний: 7)
Виталий Злобин | Дом, который построишь ты. Как создать современный проект загородного дома (2020) [PDF]

(скачиваний: 6)

Торрент трекер | Скачать торрент | Скачать через Торрент | Скачать торрент бесплатно | Скачать торрент без регистрации Книги торрент скачать [Udemy] James Doyle | Learn To Create A First Person Shooter With Unity & C# (2020) PCRec [EN / EN Sub] торрент скачать бесплатно

[Udemy] James Doyle | Learn To Create A First Person Shooter With Unity & C# (2020) PCRec [EN / EN Sub] торрент скачать бесплатно

Книги торрент скачать
[Udemy] James Doyle | Learn To Create A First Person Shooter With Unity & C# (2020) PCRec [EN / EN Sub]Автор: James Doyle
Производство: Udemy
Жанр: Unity, Разработка игр, Программирование

Описание

Узнайте, как создать свой собственный шутер от первого лица с помощью Unity, стандартной отраслевой программы, используемой многими крупными игровыми студиями и инди-разработчиками по всему миру.
В этом курсе вы не просто изучите концепции программирования, но и свяжете эти концепции с реальным использованием разработки игр.
Этот курс был разработан так, чтобы быть легко понятным для всех, поэтому независимо от того, являетесь ли вы полным новичком, художником, стремящимся расширить свой диапазон разработки игр, или программистом, заинтересованным в понимании игрового дизайна, этот курс поможет вам получить более глубокое понимание разработки игр.
Продолжительность: 11: 32: 57
Качество видео: PCRec
Перевод: Отсутствует
Язык озвучки: Английский
Субтитры: Английские (отдельным файлом, формат SRT)
Видео: AVC/H.264, 1280х720, ~982 Kbps
Аудио: AAC, 2 ch, 128 Kbps, CBR
General
Complete name : C: TorrentsUdemy - Learn To Create A First Person Shooter With Unity C#2. Project Setup2. Setting up a Basic Scene.mp4
Format : MPEG-4
Format profile : Base Media
Codec ID : isom (isom/iso2/avc1/mp41)
File size : 78.6 MiB
Duration : 9 min 49 s
Overall bit rate : 1 119 kb/s
Writing application : Lavf58.12.100
IsTruncated : Yes
Video
ID : 1
Format : AVC
Format/Info : Advanced Video Codec
Format profile : Main@L3.1
Format settings : CABAC/4 Ref Frames
Format settings, CABAC : Yes
Format settings, Reference : 4 frames
Format settings, GOP : M=4, N=60
Codec ID : avc1
Codec ID/Info : Advanced Video Coding
Duration : 9 min 49 s
Bit rate : 982 kb/s
Nominal bit rate : 3 000 kb/s
Width : 1 280 pixels
Height : 720 pixels
Display aspect ratio : 16: 9
Frame rate mode : Constant
Frame rate : 30.000 FPS
Color space : YUV
Chroma subsampling : 4: 2: 0
Bit depth : 8 bits
Scan type : Progressive
Bits/(Pixel*Frame) : 0.036
Stream size : 69.0 MiB (88%)
Writing library : x264 core 148
Encoding settings : cabac=1/ref=3/deblock=1: 0: 0/analyse=0x1: 0x111/me=umh/subme=6/psy=1/psy_rd=1.00: 0.00/mixed_ref=1/me_range=16/chroma_me=1/trellis=1/8x8dct=0/cqm=0/deadzone=21, 11/fast_pskip=1/chroma_qp_offset=-2/threads=22/lookahead_threads=3/sliced_threads=0/nr=0/decimate=1/interlaced=0/bluray_compat=0/constrained_intra=0/bframes=3/b_pyramid=2/b_adapt=1/b_bias=0/direct=1/weightb=1/open_gop=0/weightp=2/keyint=60/keyint_min=6/scenecut=0/intra_refresh=0/rc_lookahead=60/rc=cbr/mbtree=1/bitrate=3000/ratetol=1.0/qcomp=0.60/qpmin=0/qpmax=69/qpstep=4/vbv_maxrate=3000/vbv_bufsize=6000/nal_hrd=none/filler=0/ip_ratio=1.40/aq=1: 1.00
Codec configuration box : avcC
Audio
ID : 2
Format : AAC LC
Format/Info : Advanced Audio Codec Low Complexity
Codec ID : mp4a-40-2
Duration : 9 min 49 s
Bit rate mode : Constant
Bit rate : 128 kb/s
Channel(s) : 2 channels
Channel layout : L R
Sampling rate : 48.0 kHz
Frame rate : 46.875 FPS (1024 SPF)
Compression mode : Lossy
Stream size : 9.00 MiB (11%)
Default : Yes
Alternate group : 1
Скриншоты:


Время раздачи: с 16: 00 до 22: 00 (до появления первых 3-5 скачавших)
 
Уважаемый посетитель, Вы зашли на сайт как незарегистрированный пользователь. Мы рекомендуем Вам зарегистрироваться либо зайти на сайт под своим именем.

Другие новости по теме:

  • Udemy | Создание и дизайн современного дома в Blender 2.80 / Create & Design a Modern 3D House in Blender 2.80 (2020) PCRec [EN / EN Sub]
  • [Udemy] Victor Temprano | Интерактивные карты с Mapbox! / Interactive maps with Mapbox! (2018) PCRec [En]
  • [Udemy] Tomas Mikula | Разработка расширений для Google Chrome / Google Chrome Extension Development For Everyone (2020) PCRec [En / En Sub]
  • Udemy | Создание реалистичного автомобиля в Blender 2.82 и Substance Painter 2020 / BLENDER: Realistic Vehicle Creation From Start To Finish (2020) PCRec [EN]
  • Udemy | Изучение взлома Wi-fi паролей / ключей (WEP / WPA / WPA2) / Learn Cracking Wi-fi Passwords / Keys (WEP / WPA / WPA2) (2015) PCRec [EN]
  • Udemy | Certified Metasploit Framework Professional (2014) PCRec [EN] скачать через торрент бесплатно
  • Udemy.com | Создание сайта с нуля с помощью HTML и CSS / Build Websites from Scratch with HTML & CSS (2014) PCRec [H.264 / 720p] [EN] скачать через торрент бесплатно
  • Udemy.com | Станьте web-разработчиком с нуля / Become a Web Developer from Scratch (2015) PCRec [H.264 / 720p] [EN] скачать через торрент бесплатно


  • Информация
    Посетители, находящиеся в группе Гости, не могут оставлять комментарии в данной новости.
    Главная страница | Регистрация | Добавить новость | Новое на сайте Copyright © 2019. bolt.mmix.club All Rights Reserved