Подписывайся на наш канал в Telegram https://t.me/torrentok и получи доступ к торрентам без ограничений!
. bolt.mmix.club
Авторские права
con...@...Показать
Вход на сайт
Логин:
Пароль:
 
Навигация по сайту
Популярные статьи

Бен Орлин | Математика с дурацкими рисунками. Идеи, которые формируют нашу реальность (2020) [PDF]

(скачиваний: 20)
Джордж Саймон | Манипулятор в овечьей шкуре. Как не стать жертвой его уловок (2020) [FB2]

(скачиваний: 17)
Евгений Божьев | Просто исцеляйся сам. Что делать, когда все болит и ничего не помогает (2020) [EPUB]

(скачиваний: 14)
Андрей Мовчан, Алексей Митров | ПрОклятые экономики (2020) [FB2]

(скачиваний: 12)
Доктор Фил | В поисках волшебной таблетки. Научно-популярная сказка (2020) [FB2, PDF]

(скачиваний: 11)
Дженни Климан | Секс без людей, мясо без животных. Кто проектирует мир будущего (2020) [FB2]

(скачиваний: 10)
Сара Найт | Успокойся, чёрт возьми! (2020) [FB2]

(скачиваний: 9)
Максим Черкашин (сост.) | Сигары. Иллюстрированная энциклопедия (2013) [PDF]

(скачиваний: 8)
Дженна Маччиоки | Иммунитет. Наука о том, как быть здоровым (2020) [EPUB]

(скачиваний: 7)
Виталий Злобин | Дом, который построишь ты. Как создать современный проект загородного дома (2020) [PDF]

(скачиваний: 6)

Торрент трекер | Скачать торрент | Скачать через Торрент | Скачать торрент бесплатно | Скачать торрент без регистрации Книги торрент скачать FXPHD | NUKE: Tips and Tricks (2016) HDTV [RU, EN] торрент скачать бесплатно

FXPHD | NUKE: Tips and Tricks (2016) HDTV [RU, EN] торрент скачать бесплатно

Книги торрент скачать
FXPHD | NUKE: Tips and Tricks (2016) HDTV [RU, EN]Автор: Hugo Léveillé
Производство: FXPHD
Жанр: Работа с видео

Описание

Хьюго Левели в настоящее время возглавляет направление композитинга в студии Mels в Монреале. Более чем с 10 летним опытом в создании визуальных эффектов, он так же разрабатывает и внедряет новые инструменты в пайплайн для Nuke. В первом из наших нескольких новых курсов Приёмы и Хитрости в NUKE Хьюго Левели показывает полезные приёмы, используемые в продакшене, которые вы можете применить и в своих скриптах. Эти советы, начиная от небольших - не более пяти минут, и заканчивая продолжительностью более часа, направлены на то, чтобы помочь вам в вашей повседневной работе.
Продолжительность: 10: 04: 21
Качество видео: HDTV
Язык озвучки: Английский, Русский
Видео: AVC/H.264, 1920x1080, ~1000 Kbps
Аудио: MP3, 2 ch, 192 Kbps
Аудио 2: AAC, 2 ch, 154 Kbps
Общее
Полное имя : O: FXPHD NUKE Tips and Tricks RUSVolume 1nuk238-class02.mp4
Формат : MPEG-4
Профиль формата : Base Media
Идентификатор кодека : isom (isom/iso2/avc1/mp41)
Размер файла : 801 Мбайт
Продолжительность : 1 ч. 4 м.
Общий поток : 1746 Кбит/сек
HDVideo : Yes
Видео
Идентификатор : 1
Формат : AVC
Формат/Информация : Advanced Video Codec
Профиль формата : Main@L3.1
Настройки формата : CABAC/4 Ref Frames
Параметр CABAC формата : Да
Параметр RefFrames формата : 4 кадра
Идентификатор кодека : avc1
Идентификатор кодека/Информация : Advanced Video Coding
Продолжительность : 1 ч. 4 м.
Битрейт : 1387 Кбит/сек
Ширина : 1920 пикселей
Высота : 1080 пикселей
Соотношение сторон : 16: 9
Режим частоты кадров : Переменный
Частота кадров : 30, 000 кадров/сек
Минимальная частота кадров : 29, 425 кадров/сек
Максимальная частота кадров : 30, 296 кадров/сек
Цветовое пространство : YUV
Субдискретизация насыщенности : 4: 2: 0
Битовая глубина : 8 бит
Тип развёртки : Прогрессивная
Бит/(Пиксели*Кадры) : 0.022
Размер потока : 637 Мбайт (79%)
Язык : English
Цветовой диапазон : Limited
Основные цвета : BT.709
Характеристики трансфера : BT.709
Коэффициенты матрицы : BT.709
Аудио #1
Идентификатор : 2
Формат : MPEG Audio
Версия формата : Version 1
Профиль формата : Layer 3
Идентификатор кодека : mp4a-6B
Продолжительность : 1 ч. 4 м.
Вид битрейта : Постоянный
Битрейт : 192 Кбит/сек
Каналы : 2 канала
Channel(s)_Original : 1 канал
Частота : 44, 1 КГц
Метод сжатия : С потерями
Размер потока : 88, 0 Мбайт (11%)
Заголовок : ПереводВсем/ПереводВсем
Язык : Russian
Default : Да
AlternateGroup/String : 1
Аудио #2
Идентификатор : 3
Формат : AAC
Формат/Информация : Advanced Audio Codec
Профиль формата : LC
Идентификатор кодека : mp4a-40-2
Продолжительность : 1 ч. 4 м.
Вид битрейта : Постоянный
Битрейт : 154 Кбит/сек
Каналы : 2 канала
Расположение каналов : Front: L R
Частота : 48, 0 КГц
Частота кадров : 46, 875 кадров/сек (1024 SPF)
Метод сжатия : С потерями
Размер потока : 70, 5 Мбайт (9%)
Заголовок : Original/Original
Язык : English
Default : Нет
AlternateGroup/String : 1
Скриншоты:


Время раздачи: с 8: 00 до 3: 00 (до появления первых 3-5 скачавших)
 
Уважаемый посетитель, Вы зашли на сайт как незарегистрированный пользователь. Мы рекомендуем Вам зарегистрироваться либо зайти на сайт под своим именем.

Другие новости по теме:

  • FXPHD.com | NUKE Tips and Tricks (2016) PCRec [H.264 / 1080p-LQ] [RU / EN]


  • Информация
    Посетители, находящиеся в группе Гости, не могут оставлять комментарии в данной новости.
    Главная страница | Регистрация | Добавить новость | Новое на сайте Copyright © 2019. bolt.mmix.club All Rights Reserved